Ребята, если до конца года каждый наш пользователь пожертвует хотя бы 10 рублей, нам хватит денег оплатить все наши расходы.

iTunes

iTunes

Миссия невыполнима: Последствия

iTunes

Поиск

4 сезон

дом

MVO

venom

iTunes

Багровая мята

iTunes

Проклятие монахини

iTunes

Человек на Луне Хит недели

ИГРА 18+

pack

RePack

Battlefield V Хит недели

RePack

Assassins Creed: Odyssey
pack

RePack

Darksiders 3

iTunes 4K

Миссия невыполнима: Последствия

RePack

fifa19

!!Акция!!

Alien_RageХит недели

RePack

NEED FOR SPEED™ PAYBACK

SATRip

9 сезон

Бесстыжие 9 сезон

Все сериалы

все сериалы на PB.wtf

iTunes

Мэнди

RePack

FAR CRY 5
  

База "Берлин" / Berlin Station / Сезон: 2 / Серии: 1-9 из 9 (Джузеппе Капотонди, Джон Дэвид Коулз, Михаэль Р. Роскам) [2017, Триллер, WEBRip 720p] [MVO] (Jaskier)

База "Берлин" через торрент

Размер: 10.94 GB | Добавлен: 7 д. назад | Торрент скачан:3 раза
Скачать  

06-12-2018 17:45 База "Берлин" Скачать торрент  

База "Берлин" / Berlin Station

Год выпуска: 2017
Страна: США, Германия
Жанр: Триллер
Продолжительность: ~ 00:50:00

Перевод: Профессиональный (многоголосый закадровый) | Jaskier

Режиссёр: Джузеппе Капотонди, Джон Дэвид Коулз, Михаэль Р. Роскам

В ролях: Ричард Армитедж, Ричард Диллэйн, Мишель Форбс, Рис Иванс, Эрл Винсент Шервуд II, Ричард Дженкинс, Лиленд Орсер, Роджер Рингроуз, Бернхард Шюц, Тэмлин Томита

Описание: Главный герой сериала Даниэль Мейер, недавно получивший должность следователя, прибывает в резидентуру ЦРУ в Берлине, чтобы раскрыть источник утечки, который снабжает информацией доносчика. Под руководством опытного следователя-ветерана Гектора ДеЖана — упрямого агента с мрачным очарованием, который работает на шефа резидентуры Стивена Фроста — Дэниел учится правилам игры в суровом мире профессиональных агентов, полном опасностей, предательства, моральных компромиссов.

rating

Качество: WEBRip 720p
Формат: MKV
Видео: X264, ~ 2800 kbps, 1280x720 (16:9), 23.976 fps
Аудио 1: AC3, 48,0 КГц, 6 ch, 384 kbps - RUS
Аудио 2: AC3, 48,0 КГц, 6 ch, 384 kbps - ENG
Субтитры: отсутствуют
Общее
Уникальный идентификатор : 207665973616249618222785185439781596617 (0x9C3B02FEE3663E2DB952BD6504F5ADC9)
Формат : Matroska
Версия формата : Version 2
Размер файла : 1,27 Гбайт
Продолжительность : 51 м.
Режим общего битрейта : Переменный
Общий поток : 3488 Кбит/сек
Дата кодирования : UTC 2017-12-30 14:53:33
Программа кодирования : mkvmerge v5.8.0 ('No Sleep / Pillow') built on Sep 2 2012 15:37:04
Библиотека кодирования : libebml v1.2.3 + libmatroska v1.3.0

Видео
Идентификатор : 1
Формат : AVC
Формат/Информация : Advanced Video Codec
Профиль формата : Main@L3.1
Параметр CABAC формата : Да
Параметр ReFrames формата : 3 кадра
Идентификатор кодека : V_MPEG4/ISO/AVC
Продолжительность : 51 м.
Вид битрейта : Переменный
Битрейт : 2740 Кбит/сек
Максимальный битрейт : 4110 Кбит/сек
Ширина : 1280 пикселей
Высота : 720 пикселей
Соотношение сторон : 16:9
Режим частоты кадров : Постоянный
Частота кадров : 23,976 (24000/1001) кадра/сек
Цветовое пространство : YUV
Субдискретизация насыщенности : 4:2:0
Битовая глубина : 8 бит
Тип развёртки : Прогрессивная
Бит/(Пиксели*Кадры) : 0.124
Размер потока : 985 Мбайт (76%)
Библиотека кодирования : x264 core 148
Настройки программы : cabac=1 / ref=3 / deblock=1:0:0 / analyse=0x1:0x111 / me=umh / subme=10 / psy=1 / psy_rd=1.00:0.00 / mixed_ref=1 / me_range=24 / chroma_me=1 / trellis=2 / 8x8dct=0 / cqm=0 / deadzone=21,11 / fast_pskip=1 / chroma_qp_offset=-2 / threads=8 / lookahead_threads=1 / sliced_threads=0 / nr=0 / decimate=1 / interlaced=0 / bluray_compat=0 / stitchable=1 / constrained_intra=0 / bframes=2 / b_pyramid=0 / b_adapt=2 / b_bias=0 / direct=3 / weightb=1 / open_gop=0 / weightp=2 / keyint=48 / keyint_min=25 / scenecut=0 / intra_refresh=0 / rc_lookahead=48 / rc=2pass / mbtree=1 / bitrate=2740 / ratetol=1.0 / qcomp=0.50 / qpmin=6 / qpmax=51 / qpstep=4 / cplxblur=20.0 / qblur=0.5 / vbv_maxrate=4110 / vbv_bufsize=5480 / nal_hrd=vbr / filler=0 / ip_ratio=1.40 / aq=1:1.00
Default : Да
Forced : Нет

Аудио #1
Идентификатор : 2
Формат : AC-3
Формат/Информация : Audio Coding 3
Расширение режима : CM (complete main)
Параметр Endianness формата : Big
Идентификатор кодека : A_AC3
Продолжительность : 51 м.
Вид битрейта : Постоянный
Битрейт : 384 Кбит/сек
Каналы : 6 каналов
Расположение каналов : Front: L C R, Side: L R, LFE
Частота : 48,0 КГц
Частота кадров : 31,250 кадров/сек (1536 spf)
Метод сжатия : С потерями
Размер потока : 143 Мбайт (11%)
Язык : Russian
Default : Да
Forced : Нет

Аудио #2
Идентификатор : 3
Формат : AC-3
Формат/Информация : Audio Coding 3
Расширение режима : CM (complete main)
Параметр Endianness формата : Big
Идентификатор кодека : A_AC3
Продолжительность : 51 м.
Вид битрейта : Постоянный
Битрейт : 384 Кбит/сек
Каналы : 6 каналов
Расположение каналов : Front: L C R, Side: L R, LFE
Частота : 48,0 КГц
Частота кадров : 31,250 кадров/сек (1536 spf)
Метод сжатия : С потерями
Размер потока : 143 Мбайт (11%)
Язык : English
Default : Нет
Forced : Нет
скриншот  скриншот  скриншот  



Скачать База "Берлин" через торрент http://i99.fastpic.ru/big/2017/1230/0e/c49720fb14e3426ab82d9c7f2c74540e.png Скачать фильм База "Берлин" через торрент бесплантно в хорошем качестве Описание: Главный герой сериала Даниэль Мейер, недавно получивший должность следователя, прибывает в резидентуру ЦРУ в Берлине, чтобы ... 5 10 1
Торрент: Зарегистрирован [2018-12-06 17:45] · скачан: 3 раз
Статус: √ проверено
Размер: 10.94 GB
Как cкачать? Как скачать База "Берлин" через торрент | qTorrent


>> Регистрируемся здесь <<






Отзывы и комментарии о схеме читаем и пишем здесь: ---> Отзывы и комментарии о схеме

Новые благодарочки в телеграм довольных пользователей:
скриншот   скриншот   скриншот   скриншот   скриншот
    Дорогой пользователь! Огромная просьба, поблагодарите релизера, оцените раздачу и оставьте свои комментарий, если Вы скачали База "Берлин" через торрент бесплатно! Внесите свою лепту в развитие PiratBit!
    Комментировать посты могут только пользователи прошедшие не сложную регистрацию
    Показать сообщения:    

    База "Берлин" через торрент
    Скачать бесплатно База "Берлин"
    База "Берлин" скачать торрент
    База "Берлин" смотреть онлайн
    Cкачать фильм База "Берлин" бесплатно
    База "Берлин" скачать торрент в хорошем качестве
    База "Берлин" смотреть онлайн бесплатно в хорошем качестве


    Вы не можете начинать темы
    Вы не можете отвечать на сообщения
    Вы не можете редактировать свои сообщения
    Вы не можете удалять свои сообщения
    Вы не можете голосовать в опросах
    Вы не можете прикреплять файлы к сообщениям
    Вы можете скачивать файлы