Достать ножи: Стеклянная луковица

MVO

Добыча

Дубляж

Уэнсдэй

1 сезон

Тор

Дубляж

13 клиническая

1 сезон

Жестокая ночь

MVO

Одни из нас

1 сезон

Deluxe

pack

Рекомендуем

30

Пиратка

ВАЖНО

ВАЖНО

Ghostwire

Пиратка

jed

RePack

nioh2

RePack

RDR2

RePack

NEED FOR SPEED™ PAYBACK

RePack

скачать торрент

Кинопоиск HD

Острые козырьки 6 сезон

6 сезон

FAR CRY 6

RePack

скачать торрент

Лицензия

скачать торрент

MVO

1

1 сезон

скачать торрент

1 сезон

скачать торрент

Лицензия

  

Крепкий орешек 2 / Die Hard 2 (Ренни Харлин) [1990 г., Боевик, триллер, экранизация, UHD WEBRip 2160p] Дубляж + 5xMVO + 4xAVO

Крепкий орешек 2 через торрент piratbit.org

Размер: 36.91 GB | Добавлен: 4 года 1 мес. назад | Торрент скачан:83 раза
Смотреть онлайн | Скачать | Поддержите нас   

07-12-2018 14:40 Крепкий орешек 2 Скачать торрент  


Крепкий орешек 2 / Die Hard 2


Год выпуска: 1990
Страна: США
Жанр: Боевик, триллер, экранизация
Продолжительность: 02:03:25
Перевод: Дублированный, профессиональный многоголосый, профессиональный одноголосый, авторский, любительский одноголосый
Субтитры: Русские, английские
Режиссер: Ренни Харлин
В ролях:
Брюс Уиллис, Бонни Беделиа, Уильям Этертон, Реджинальд ВелДжонсон, Франко Неро, Уильям Сэдлер, Джон Эймос, Дэннис Франц, Арт Эванс, Фред Долтон Томпсон, Том Бауэр, Шила МакКарти, Дон Харви, Тони Гэниос, Питер Нельсон, Роберт Патрик
Описание:
После того как Джон Макклейн помирившись с женой, перебирается в Лос-Анджелес, проходит время, и наступает новое Рождество. Джон приезжает в аэропорт Лос-Анджелеса, чтобы встретить из командировки жену Холли. Но внезапно события начинают разворачиваться так, что Джону снова приходится принять вызов от террористов, захвативших аэропорт ради освобождения военного преступника. Джону придётся приложить всё своё умение, чтобы самолёт, в котором летит его жена, мог безопасно сесть на обесточенную террористами взлётную полосу.
rating
Качество: UHD WEBRip 2160p
Формат: MKV
Видео: HEVC HDR, 25.1 Мбит/с, 3840x1604
Аудио №1: English / DTS-HD Master Audio / 5.1 / 48 kHz / 2270 kbps / 24-bit
Аудио №2: Russian / DTS Audio / 5.1 / 48 kHz / 768 kbps / 24-bit Дубляж, Blu-ray
Аудио №3: Russian / DTS Audio / 5.1 / 48 kHz / 755 kbps / 24-bit MVO ОРТ
Аудио №4: Russian / DTS-HD Master Audio / 5.1 / 48 kHz / 2214 kbps / 16-bit MVO, Киномания
Аудио №5: Russian / DTS-HD Master Audio / 5.1 / 48 kHz / 2215 kbps / 16-bit MVO, Карусель/Супербит
Аудио №6: Russian / Dolby Digital Audio / 5.1 / 48 kHz / 448 kbps MVO, Домашнее видео
Аудио №7: Russian / Dolby Digital Audio / 5.1 / 48 kHz / 384 kbps MVO, НТВ+
Аудио №8: Russian / DTS-HD Master Audio / 5.1 / 48 kHz / 2164 kbps / 16-bit (DTS Core: 5.1 / 48 kHz / 1509 kbps / 16-bit) А. Гаврилов
Аудио №9: Russian / DTS-HD Master Audio / 5.1 / 48 kHz / 2169 kbps / 16-bit (DTS Core: 5.1 / 48 kHz / 1509 kbps / 16-bit) Ю. Живов
Аудио №10: Russian / DTS-HD Master Audio / 5.1 / 48 kHz / 2164 kbps / 16-bit (DTS Core: 5.1 / 48 kHz / 1509 kbps / 16-bit) В. Горчаков
Аудио №11: Russian / DTS-HD Master Audio / 5.1 / 48 kHz / 2161 kbps / 16-bit (DTS Core: 5.1 / 48 kHz / 1509 kbps / 16-bit) М. Иванов
Навигация по главам: Есть

General
Unique ID : 113605587650970330252645945372808743863 (0x5577A3EB6670506D0091B1AA85428BB7)
Complete name : W:\Downloads\Die Hard 2.1990.WEBRiP.HEVC.HDR.2160p.mkv
Format : Matroska
Format version : Version 4 / Version 2
File size : 36.9 GiB
Duration : 2 h 3 min
Overall bit rate : 42.8 Mb/s
Encoded date : UTC 2018-12-07 06:58:24
Writing application : mkvmerge v29.0.0 ('Like It Or Not') 64-bit
Writing library : libebml v1.3.6 + libmatroska v1.4.9
Attachments : poster.jpg

Video
ID : 1
Format : HEVC
Format/Info : High Efficiency Video Coding
Format profile : Main 10@L5@Main
Codec ID : V_MPEGH/ISO/HEVC
Duration : 2 h 3 min
Bit rate : 25.1 Mb/s
Width : 3 840 pixels
Height : 1 604 pixels
Display aspect ratio : 2.40:1
Frame rate mode : Constant
Frame rate : 23.976 (24000/1001) FPS
Color space : YUV
Chroma subsampling : 4:2:0
Bit depth : 10 bits
Bits/(Pixel*Frame) : 0.170
Stream size : 21.6 GiB (59%)
Default : Yes
Forced : No
Color range : Limited
Color primaries : BT.2020
Transfer characteristics : PQ
Matrix coefficients : BT.2020 non-constant
Mastering display color pri : BT.2020
Mastering display luminance : min: 0.0050 cd/m2, max: 1000 cd/m2
Maximum Content Light Level : 6391 cd/m2
Maximum Frame-Average Light : 997 cd/m2

Audio #1
ID : 2
Format : DTS
Format/Info : Digital Theater Systems
Format profile : MA / Core
Codec ID : A_DTS
Duration : 2 h 3 min
Bit rate mode : Variable / Constant
Bit rate : 2 270 kb/s / 1 509 kb/s
Channel(s) : 6 channels
Channel positions : Front: L C R, Side: L R, LFE
Sampling rate : 48.0 kHz
Frame rate : 93.750 FPS (512 SPF)
Bit depth : 24 bits
Compression mode : Lossless / Lossy
Stream size : 1.95 GiB (5%)
Title : Original
Language : English
Default : No
Forced : No

Audio #2
ID : 3
Format : DTS
Format/Info : Digital Theater Systems
Codec ID : A_DTS
Duration : 2 h 3 min
Bit rate mode : Constant
Bit rate : 768 kb/s
Channel(s) : 6 channels
Channel positions : Front: L C R, Side: L R, LFE
Sampling rate : 48.0 kHz
Frame rate : 93.750 FPS (512 SPF)
Bit depth : 24 bits
Compression mode : Lossy
Stream size : 677 MiB (2%)
Title : Дубляж, Blu-ray
Language : Russian
Default : Yes
Forced : No

Audio #3
ID : 4
Format : DTS
Format/Info : Digital Theater Systems
Codec ID : A_DTS
Duration : 2 h 3 min
Bit rate mode : Constant
Bit rate : 755 kb/s
Channel(s) : 6 channels
Channel positions : Front: L C R, Side: L R, LFE
Sampling rate : 48.0 kHz
Frame rate : 93.750 FPS (512 SPF)
Bit depth : 24 bits
Compression mode : Lossy
Stream size : 665 MiB (2%)
Title : MVO ОРТ
Language : Russian
Default : No
Forced : No

Audio #4
ID : 5
Format : DTS
Format/Info : Digital Theater Systems
Format profile : MA / Core
Codec ID : A_DTS
Duration : 2 h 3 min
Bit rate mode : Variable / Constant
Bit rate : 2 214 kb/s / 1 509 kb/s
Channel(s) : 6 channels
Channel positions : Front: L C R, Side: L R, LFE
Sampling rate : 48.0 kHz
Frame rate : 93.750 FPS (512 SPF)
Bit depth : 16 bits
Compression mode : Lossless / Lossy
Stream size : 1.91 GiB (5%)
Title : MVO, Киномания
Language : Russian
Default : No
Forced : No

Audio #5
ID : 6
Format : DTS
Format/Info : Digital Theater Systems
Format profile : MA / Core
Codec ID : A_DTS
Duration : 2 h 3 min
Bit rate mode : Variable / Constant
Bit rate : 2 215 kb/s / 1 509 kb/s
Channel(s) : 6 channels
Channel positions : Front: L C R, Side: L R, LFE
Sampling rate : 48.0 kHz
Frame rate : 93.750 FPS (512 SPF)
Bit depth : 16 bits
Compression mode : Lossless / Lossy
Stream size : 1.91 GiB (5%)
Title : MVO, Карусель/Супербит
Language : Russian
Default : No
Forced : No

Audio #6
ID : 7
Format : AC-3
Format/Info : Audio Coding 3
Codec ID : A_AC3
Duration : 2 h 3 min
Bit rate mode : Constant
Bit rate : 448 kb/s
Channel(s) : 6 channels
Channel positions : Front: L C R, Side: L R, LFE
Sampling rate : 48.0 kHz
Frame rate : 31.250 FPS (1536 SPF)
Bit depth : 16 bits
Compression mode : Lossy
Stream size : 395 MiB (1%)
Title : MVO, Домашнее видео
Language : Russian
Service kind : Complete Main
Default : No
Forced : No

Audio #7
ID : 8
Format : AC-3
Format/Info : Audio Coding 3
Codec ID : A_AC3
Duration : 2 h 2 min
Bit rate mode : Constant
Bit rate : 384 kb/s
Channel(s) : 6 channels
Channel positions : Front: L C R, Side: L R, LFE
Sampling rate : 48.0 kHz
Frame rate : 31.250 FPS (1536 SPF)
Bit depth : 16 bits
Compression mode : Lossy
Stream size : 337 MiB (1%)
Title : MVO, НТВ+
Language : Russian
Service kind : Complete Main
Default : No
Forced : No

Audio #8
ID : 9
Format : DTS
Format/Info : Digital Theater Systems
Format profile : MA / Core
Codec ID : A_DTS
Duration : 2 h 3 min
Bit rate mode : Variable / Constant
Bit rate : 2 164 kb/s / 1 509 kb/s
Channel(s) : 6 channels
Channel positions : Front: L C R, Side: L R, LFE
Sampling rate : 48.0 kHz
Frame rate : 93.750 FPS (512 SPF)
Bit depth : 16 bits
Compression mode : Lossless / Lossy
Stream size : 1.86 GiB (5%)
Title : VO, А. Гаврилов
Language : Russian
Default : No
Forced : No

Audio #9
ID : 10
Format : DTS
Format/Info : Digital Theater Systems
Format profile : MA / Core
Codec ID : A_DTS
Duration : 2 h 3 min
Bit rate mode : Variable / Constant
Bit rate : 2 169 kb/s / 1 509 kb/s
Channel(s) : 6 channels
Channel positions : Front: L C R, Side: L R, LFE
Sampling rate : 48.0 kHz
Frame rate : 93.750 FPS (512 SPF)
Bit depth : 16 bits
Compression mode : Lossless / Lossy
Stream size : 1.87 GiB (5%)
Title : VO, Ю. Живов
Language : Russian
Default : No
Forced : No

Audio #10
ID : 11
Format : DTS
Format/Info : Digital Theater Systems
Format profile : MA / Core
Codec ID : A_DTS
Duration : 2 h 3 min
Bit rate mode : Variable / Constant
Bit rate : 2 164 kb/s / 1 509 kb/s
Channel(s) : 6 channels
Channel positions : Front: L C R, Side: L R, LFE
Sampling rate : 48.0 kHz
Frame rate : 93.750 FPS (512 SPF)
Bit depth : 16 bits
Compression mode : Lossless / Lossy
Stream size : 1.86 GiB (5%)
Title : VO, В. Горчаков
Language : Russian
Default : No
Forced : No

Audio #11
ID : 12
Format : DTS
Format/Info : Digital Theater Systems
Format profile : MA / Core
Codec ID : A_DTS
Duration : 2 h 3 min
Bit rate mode : Variable / Constant
Bit rate : 2 161 kb/s / 1 509 kb/s
Channel(s) : 6 channels
Channel positions : Front: L C R, Side: L R, LFE
Sampling rate : 48.0 kHz
Frame rate : 93.750 FPS (512 SPF)
Bit depth : 16 bits
Compression mode : Lossless / Lossy
Stream size : 1.86 GiB (5%)
Title : VO, М. Иванов
Language : Russian
Default : No
Forced : No

Text #1
ID : 13
Format : UTF-8
Codec ID : S_TEXT/UTF8
Codec ID/Info : UTF-8 Plain Text
Duration : 1 h 58 min
Bit rate : 108 b/s
Count of elements : 1465
Stream size : 94.0 KiB (0%)
Language : Russian
Default : Yes
Forced : No

Text #2
ID : 14
Format : UTF-8
Codec ID : S_TEXT/UTF8
Codec ID/Info : UTF-8 Plain Text
Duration : 1 h 55 min
Bit rate : 54 b/s
Count of elements : 1037
Stream size : 46.3 KiB (0%)
Language : English
Default : No
Forced : No

Menu
00:00:00.000 : en:Chapter 1
00:06:13.581 : en:Chapter 2
00:08:13.534 : en:Chapter 3
00:12:14.692 : en:Chapter 4
00:16:20.437 : en:Chapter 5
00:18:31.693 : en:Chapter 6
00:19:31.128 : en:Chapter 7
00:23:21.733 : en:Chapter 8
00:25:08.924 : en:Chapter 9
00:27:02.245 : en:Chapter 10
00:29:47.076 : en:Chapter 11
00:36:45.244 : en:Chapter 12
00:39:13.767 : en:Chapter 13
00:40:01.774 : en:Chapter 14
00:43:36.155 : en:Chapter 15
00:48:57.476 : en:Chapter 16
00:49:56.034 : en:Chapter 17
00:52:29.729 : en:Chapter 18
00:58:28.671 : en:Chapter 19
01:01:42.949 : en:Chapter 20
01:02:38.921 : en:Chapter 21
01:04:46.382 : en:Chapter 22
01:06:37.409 : en:Chapter 23
01:08:11.253 : en:Chapter 24
01:09:53.439 : en:Chapter 25
01:10:58.754 : en:Chapter 26
01:16:22.244 : en:Chapter 27
01:21:55.368 : en:Chapter 28
01:23:26.209 : en:Chapter 29
01:25:39.884 : en:Chapter 30
01:30:52.988 : en:Chapter 31
01:33:16.632 : en:Chapter 32
01:34:22.156 : en:Chapter 33
01:41:08.687 : en:Chapter 34
01:42:30.852 : en:Chapter 35
01:44:52.160 : en:Chapter 36
01:46:35.430 : en:Chapter 37
01:49:12.253 : en:Chapter 38
01:53:33.431 : en:Chapter 39
01:56:07.710 : en:Chapter 40



Скачать Крепкий орешек 2 через торрент https://b.radikal.ru/b07/1812/65/fff964848e5a.png Скачать, смотреть онлайн Крепкий орешек 2 бесплантно в хорошем качестве Описание: После того как Джон Макклейн помирившись с женой, перебирается в Лос-Анджелес, проходит время, и наступает новое Рождество. Джон ... 9.3 10 4
Info! Золотая раздача, скачанное не засчитывается.
Торрент: Зарегистрирован [2018-12-07 14:40] · скачан: 83 раз
Статус: √ проверено
Размер: 36.91 GB
Как cкачать? Как скачать Крепкий орешек 2 через торрент | UTorrent

28-11-2019 20:33  


Отключить вcю реклaмy на сайте, в т.ч. и в плеере онлайн просмотра!

08-12-2018 11:48 Крепкий орешек 2 Скачать торрент  

Лучшая часть из 5 и один из моих любимых фильмов. Ламповый, теплый, прекрасная музыка, хорошие актеры, отличный главзлодей, зрелищный сюжет. 10 из 10



07-12-2020 05:01 Крепкий орешек 2 Скачать торрент  

встаньте пожалуйста на раздачу!!!



    Дорогой пользователь! Огромная просьба, поблагодарите релизера, оцените раздачу и оставьте свои комментарий, если Вы скачали Крепкий орешек 2 через торрент бесплатно!!
    Комментировать посты могут только пользователи прошедшие не сложную регистрацию
    Показать сообщения:    


    Крепкий орешек 2 через торрент
    Скачать бесплатно Крепкий орешек 2
    Крепкий орешек 2 скачать торрент
    Крепкий орешек 2 смотреть онлайн
    Cкачать фильм Крепкий орешек 2 бесплатно
    Крепкий орешек 2 скачать торрент в хорошем качестве
    Крепкий орешек 2 смотреть онлайн бесплатно в хорошем качестве
    Вы не можете начинать темы
    Вы не можете отвечать на сообщения
    Вы не можете редактировать свои сообщения
    Вы не можете удалять свои сообщения
    Вы не можете голосовать в опросах
    Вы не можете прикреплять файлы к сообщениям
    Вы можете скачивать файлы
    Крепкий орешек 2 / Die Hard 2 [1990 г., Боевик, триллер, экранизация, UHD WEBRip 2160p] Дубляж + 5xMVO + 4xAVO смотреть онлайн, скачать торрент picoco.icu