Достать ножи: Стеклянная луковица

MVO

Добыча

Дубляж

Уэнсдэй

1 сезон

Тор

Дубляж

13 клиническая

1 сезон

Жестокая ночь

MVO

Одни из нас

1 сезон

Deluxe

pack

Рекомендуем

30

Пиратка

ВАЖНО

ВАЖНО

Ghostwire

Пиратка

jed

RePack

nioh2

RePack

RDR2

RePack

NEED FOR SPEED™ PAYBACK

RePack

скачать торрент

Кинопоиск HD

Острые козырьки 6 сезон

6 сезон

FAR CRY 6

RePack

скачать торрент

Лицензия

скачать торрент

MVO

1

1 сезон

скачать торрент

1 сезон

скачать торрент

Лицензия

  

Кавалерия / 12 Strong (Николай Фульси) [2018, боевик, драма, военный, UHD BDRemux 2160p] Дубляж - [iTunes]

Кавалерия через торрент piratbit.org

Размер: 45.61 GB | Добавлен: 4 года 6 мес. назад | Торрент скачан:25 раз
Смотреть онлайн | Скачать | Поддержите нас   

22-07-2018 02:35 Кавалерия Скачать торрент  

Кавалерия / 12 Strong

Год выпуска: 2018
Страна: США
Жанр: боевик, драма, военный, история
Продолжительность: 02:10:39
Перевод: Дублированный [iTunes]
Субтитры: Русские (форсированные), английские
Режиссер: Николай Фульси
В ролях:

Крис Хемсворт (Captain Mitch Nelson), Майкл Шеннон (Hal Spencer), Майкл Пенья (Sam Diller), Навид Негабан (Gen. Dostum), Треванте Роудс (Ben Milo), Джофф Стульц (Sean Coffers), Тэд Лакинбилл (Vern Michaels), Остин Хеберт (Pat Essex), Остин Стоуэлл (Fred Falls), Бен О’Тул (Scott Black), Кеннет Миллер (Kevin Jackson), Кенни Шерд (Bill Bennett)
Описание:
Их бросили в пекло после 11 сентября, когда мир раскололся на «до» и «после». Именно им предстояло на передовой бороться с врагом, не знающим пощады. На чужой земле преимущество у всадников - этому их научили нежданные союзники. Вместе они попытаются удержать мир от погружения в хаос.
Рейтинг:

MPAA: R - Лицам до 17 лет обязательно присутствие взрослого
Качество: UHD BDRemux 2160p
Формат: MKV
Видео: HEVC, 3840x2160 (16:9), 24.000 fps, 46.7 Mb/s (0.235 bit/pixel)
Аудио #1: AC-3, 48.0 kHz, 6 ch, 384 kb/s, CBR (Russian) | Дублированный, iTunes |
Аудио #2: DTS MA / Core, 48.0 kHz, 8 / 6 ch, 2 855 kb/s / 1 509 kb/s, VBR / CBR (English)
Навигация по главам: есть
Общее
Уникальный идентификатор : 90546056368650824058813666198277887808 (0x441E893FDBD18FB026B63FCB73C09740)
Полное имя : 12.Strong.2018.UHD.BDRemux.2160p.HEVC.HDR.IVA(RUS.ENG).ExKinoRay.mkv
Формат : Matroska
Версия формата : Version 4 / Version 2
Размер файла : 45,6 Гбайт
Продолжительность : 2 ч. 10 м.
Общий поток : 50,0 Мбит/сек
Название фильма : Кавалерия (Двенадцать сильных) / 12 Strong ( 2018 ) UHD BDRemux | HDR, 4K | IVA(RUS.UKR.ENG) | ExKinoRay
Дата кодирования : UTC 2018-07-21 18:00:52
Программа кодирования : mkvmerge v25.0.0 ('Prog Noir') 64-bit
Библиотека кодирования : libebml v1.3.6 + libmatroska v1.4.9
Обложка : Yes
Attachments : cover

Видео
Идентификатор : 1
Формат : HEVC
Формат/Информация : High Efficiency Video Coding
Коммерческое название : HDR10
Профиль формата : Main 10@L5.1@High
Идентификатор кодека : V_MPEGH/ISO/HEVC
Продолжительность : 2 ч. 10 м.
Битрейт : 46,7 Мбит/сек
Ширина : 3840 пикселей
Высота : 2160 пикселей
Соотношение сторон : 16:9
Режим частоты кадров : Постоянный
Частота кадров : 24,000 кадра/сек
Цветовое пространство : YUV
Субдискретизация насыщенности : 4:2:0 (Type 2)
Битовая глубина : 10 бит
Бит/(Пиксели*Кадры) : 0.235
Размер потока : 42,6 Гбайт (94%)
Заголовок : 12.Strong.2018.UHD.BDRemux.2160p.HEVC.HDR
Default : Да
Forced : Нет
Цветовой диапазон : Limited
Основные цвета : BT.2020
Характеристики трансфера : PQ
Коэффициенты матрицы : BT.2020 non-constant
MasteringDisplay_ColorPrimaries : Display P3
MasteringDisplay_Luminance : min: 0.0050 cd/m2, max: 1000 cd/m2
MaxCLL : 764 cd/m2
MaxFALL : 374 cd/m2

Аудио #1
Идентификатор : 2
Формат : AC-3
Формат/Информация : Audio Coding 3
Идентификатор кодека : A_AC3
Продолжительность : 2 ч. 10 м.
Вид битрейта : Постоянный
Битрейт : 384 Кбит/сек
Каналы : 6 каналов
Расположение каналов : Front: L C R, Side: L R, LFE
Частота : 48,0 КГц
Частота кадров : 31,250 кадров/сек (1536 SPF)
Битовая глубина : 16 бит
Метод сжатия : С потерями
Размер потока : 357 Мбайт (1%)
Заголовок : | Дублированный |
Язык : Russian
ServiceKind : Complete Main
Default : Нет
Forced : Нет

Аудио #2
Идентификатор : 3
Формат : DTS
Формат/Информация : Digital Theater Systems
Профиль формата : MA / Core
Идентификатор кодека : A_DTS
Продолжительность : 2 ч. 10 м.
Вид битрейта : Переменный / Постоянный
Битрейт : 2855 Кбит/сек / 1509 Кбит/сек
Каналы : 8 каналов / 6 каналов
Расположение каналов : Front: L C R, Side: L R, Back: L R, LFE / Front: L C R, Side: L R, LFE
Частота : 48,0 КГц
Частота кадров : 93,750 кадра/сек (512 SPF)
Битовая глубина : 16 бит
Метод сжатия : Без потерь / Lossy
Размер потока : 2,61 Гбайт (6%)
Заголовок : | Original |
Язык : English
Default : Да
Forced : Нет

Текст #1
Идентификатор : 4
Формат : UTF-8
Идентификатор кодека : S_TEXT/UTF8
Идентификатор кодека/Информация : UTF-8 Plain Text
Продолжительность : 2 ч. 0 м.
Битрейт : 5 бит/сек
ElementCount : 79
Размер потока : 4,61 Кбайт (0%)
Заголовок : Forced
Язык : Russian
Default : Да
Forced : Нет

Текст #2
Идентификатор : 5
Формат : UTF-8
Идентификатор кодека : S_TEXT/UTF8
Идентификатор кодека/Информация : UTF-8 Plain Text
Продолжительность : 1 ч. 58 м.
Битрейт : 59 бит/сек
ElementCount : 1561
Размер потока : 51,8 Кбайт (0%)
Заголовок : Full
Язык : English
Default : Нет
Forced : Нет

Текст #3
Идентификатор : 6
Формат : UTF-8
Идентификатор кодека : S_TEXT/UTF8
Идентификатор кодека/Информация : UTF-8 Plain Text
Продолжительность : 2 ч. 8 м.
Битрейт : 59 бит/сек
ElementCount : 1718
Размер потока : 55,8 Кбайт (0%)
Заголовок : SDH
Язык : English
Default : Нет
Forced : Нет

Меню
00:00:00.000 : en:Chapter 1
00:11:37.875 : en:Chapter 2
00:22:14.416 : en:Chapter 3
00:32:49.124 : en:Chapter 4
00:44:23.166 : en:Chapter 5
00:56:09.624 : en:Chapter 6
01:06:01.708 : en:Chapter 7
01:13:39.207 : en:Chapter 8
01:24:07.458 : en:Chapter 9
01:34:04.541 : en:Chapter 10
01:43:15.249 : en:Chapter 11
01:57:15.207 : en:Chapter 12



Скачать Кавалерия через торрент https://c.radikal.ru/c43/1807/6b/1a365afd0b01.png Скачать, смотреть онлайн Кавалерия бесплантно в хорошем качестве Описание: Их бросили в пекло после 11 сентября, когда мир раскололся на «до» и «после». Именно им предстояло на передовой бороться с ... 10 10 1
Info! Золотая раздача, скачанное не засчитывается.
Торрент: Зарегистрирован [2018-07-22 02:35] · скачан: 25 раз
Статус: √ проверено
Размер: 45.61 GB
Как cкачать? Как скачать Кавалерия через торрент | UTorrent

% Раздел Тема Автор DL S | L
Фильмы [HD 720p, 1080p] (Хороший звук DUB, MVO) [ 5.75 GB ] Кавалерия | iTunes | 1080p, HEVC, Дубляж (iTunes Мичман37 Скачать
3 | 0
Ultra HD (UHD: 2K, 4K, 8K) [ 18.07 GB ] Кавалерия / 12 Strong | iTunes | 2160p sheker187 Скачать
1 | 0
Ultra HD (UHD: 2K, 4K, 8K) [ 37.1 GB ] Кавалерия / 12 Strong | iTunes | 2160p SDR sheker187 Скачать
1 | 0
T Фильмы (WEB-DL 720p, 1080p) [ 4.54 GB ] Кавалерия / 12 Strong | MVO | 1080p sokol_ok Скачать
2 | 0

28-11-2019 20:33  


Отключить вcю реклaмy на сайте, в т.ч. и в плеере онлайн просмотра!

    Дорогой пользователь! Огромная просьба, поблагодарите релизера, оцените раздачу и оставьте свои комментарий, если Вы скачали Кавалерия через торрент бесплатно!!
    Комментировать посты могут только пользователи прошедшие не сложную регистрацию
    Показать сообщения:    


    Кавалерия через торрент
    Скачать бесплатно Кавалерия
    Кавалерия скачать торрент
    Кавалерия смотреть онлайн
    Cкачать фильм Кавалерия бесплатно
    Кавалерия скачать торрент в хорошем качестве
    Кавалерия смотреть онлайн бесплатно в хорошем качестве
    Вы не можете начинать темы
    Вы не можете отвечать на сообщения
    Вы не можете редактировать свои сообщения
    Вы не можете удалять свои сообщения
    Вы не можете голосовать в опросах
    Вы не можете прикреплять файлы к сообщениям
    Вы можете скачивать файлы
    Кавалерия / 12 Strong [2018, боевик, драма, военный, UHD BDRemux 2160p] Дубляж - [iTunes] смотреть онлайн, скачать торрент picoco.icu