2 сезон

iTunes

WEBRip

1

2 сезон

iTunes

1 сезон

1 сезон

RePack

30

Ultimate

ВАЖНО

ИГРА 18+

pack

RePack

MK11
pack

Легкие деньги

RePack

jed

RePack

fifa19

RePack

RDR2

RePack

NEED FOR SPEED™ PAYBACK

4 сезон

9 сезон

Бесстыжие 9 сезон

Все сериалы

все сериалы на PB.wtf

RePack

FAR CRY 5

Anonymous, доброй ночи, мы не успеваем собрать деньги на оплату серверов за февраль, помогите нам пожалуйста в это трудное время. В качестве благодарности мы отключим Вам всю рекламу на сайте (укажите свой ник в строку Ваше имя)!

×
  
Magnet ссылка

Мир принадлежит тебе / Афера по-французьки / Le monde est à toi (Ромен Гаврас) [2018, комедия, криминал, WEBRip 720p] [Ukr MVO] piratbit.org

Мир принадлежит тебе через торрент piratbit.org

Размер: 1.72 GB | Добавлен: 2 года 2 мес. назад | Торрент скачан:23 раза
Скачать  

10-12-2018 07:21 Мир принадлежит тебе Скачать торрент  

Мир принадлежит тебе / Афера по-французьки / Le monde est à toi
Год выпуска: 2018
Страна: Франция
Жанр: комедия, криминал,
Продолжительность: 01:40:35
Перевод: Украинский (многоголосый)
Субтитры: нет

Режиссер: Ромен Гаврас


В ролях: Карим Леклу, Изабель Аджани, Венсан Кассель, Улайя Амамра, Франсуа Дамиенс, Филипп Катрин, Сэм Спруэлл, Гэбби Роуз, Софиан Каммес, Мунир Амамра Главный герой - увалень лет тридцати по имени Франсуа. Он до сих пор живет с матерью, приторговывает легкими наркотиками и мечтает о скромном бизнесе и квартире с видом на море. Однако внезапно выясняется, что все его накопления потратила мама, воровка и аферистка со склонностью к азартным играм. Чтобы вернуть утраченное Франсуа приходится согласиться на последнее задание: местный наркобарон по прозвищу Путин посылает его провернуть крупную сделку на испанском курорте Бенидорм. С ним едут два юных гопника, оба на имя Мухаммед, мамин экс-любовник и бойкая девушка, любовь всей жизни Франсуа ...

rating


Качество: WEBRip 720p
Формат видео: MKV
Видео кодек: XvID
Аудио кодек: AC3
Видео: AVC, 1280x536, 24.000 fps, 2 300 kb/s
Аудио: 48 kHz, AC3 Dolby Digital, 2 ch, ~192 kbps - Ukr
General
Complete name : E:\INTERNET\Le monde est à toi.2018.WEBRip-AVC.[Ukr MVO]_Line.avi
Format : AVI
Format/Info : Audio Video Interleave
File size : 1.72 GiB
Duration : 1 h 40 min
Overall bit rate : 2 448 kb/s
Writing application : VirtualDubMod 1.5.10.3 (build 2550/release)
Writing library : VirtualDubMod build 2550/release

Video
ID : 0
Format : MPEG-4 Visual
Format profile : Advanced Simple@L5
Format settings : BVOP2
Format settings, BVOP : 2
Format settings, QPel : No
Format settings, GMC : No warppoints
Format settings, Matrix : Default (H.263)
Codec ID : XVID
Codec ID/Hint : XviD
Duration : 1 h 40 min
Bit rate : 2 247 kb/s
Width : 1 280 pixels
Height : 536 pixels
Display aspect ratio : 2.40:1
Frame rate : 24.000 FPS
Color space : YUV
Chroma subsampling : 4:2:0
Bit depth : 8 bits
Scan type : Progressive
Compression mode : Lossy
Bits/(Pixel*Frame) : 0.136
Stream size : 1.58 GiB (92%)
Writing library : XviD 1.2.1 (UTC 2008-12-04)

Audio
ID : 1
Format : AC-3
Format/Info : Audio Coding 3
Format settings, Endianness : Big
Codec ID : 2000
Duration : 1 h 40 min
Bit rate mode : Constant
Bit rate : 192 kb/s
Channel(s) : 2 channels
Channel positions : Front: L R
Sampling rate : 48.0 kHz
Frame rate : 31.250 FPS (1536 SPF)
Bit depth : 16 bits
Compression mode : Lossy
Stream size : 138 MiB (8%)
Alignment : Split accross interleaves
Interleave, duration : 42 ms (1.00 video frame)
Interleave, preload duratio : 500 ms
Service kind : Complete Main
скриншот   скриншот   скриншот   скриншот   скриншот  
piratbit.org



Скачать Мир принадлежит тебе через торрент https://i107.fastpic.ru/big/2018/1210/eb/e20f164cfd58924b2fbac8191577bdeb.jpg Скачать фильм Мир принадлежит тебе через торрент бесплантно в хорошем качестве В ролях: Карим Леклу, Изабель Аджани, Венсан Кассель, Улайя Амамра, Франсуа Дамиенс, Филипп Катрин, Сэм Спруэлл, Гэбби Роуз, Софиан Каммес, ... 10 10 2
Торрент: Зарегистрирован [2018-12-10 07:21] · скачан: 23 раз
Статус: T временная
Размер: 1.72 GB
Как cкачать? Как скачать Мир принадлежит тебе через торрент | UTorrent

28-11-2019 20:33  

Отключить всю рекламу на сайте

10-12-2018 08:55 Мир принадлежит тебе Скачать торрент  

барыга с погремухой путин.. где-то рядом барыжат его подручные сечин с миллеромpiratbit.org



12-12-2018 16:37 Мир принадлежит тебе Скачать торрент  

и чего то умное сказал. По теме давай. Фильм нормальный ???piratbit.org



14-12-2018 14:17 Мир принадлежит тебе Скачать торрент  

Цитата:

местный наркобарон по прозвищу Путин посылает его провернуть крупную сделку на испанском курорте Бенидорм. С ним едут два юных гопника, оба на имя Мухаммед, мамин экс-любовник и бойкая девушка, любовь всей жизни Франсуа ...

Фильм точно не документальный или он просто снят по реальной истории? Два юных гопника Чепига и Мишкин...piratbit.org



    Дорогой пользователь! Огромная просьба, поблагодарите релизера, оцените раздачу и оставьте свои комментарий, если Вы скачали Мир принадлежит тебе через торрент бесплатно! Внесите свою лепту в развитие PiratBit!
    Комментировать посты могут только пользователи прошедшие не сложную регистрацию
    Показать сообщения:    

    Мир принадлежит тебе через торрент
    Скачать бесплатно Мир принадлежит тебе
    Мир принадлежит тебе скачать торрент
    Мир принадлежит тебе смотреть онлайн
    Cкачать фильм Мир принадлежит тебе бесплатно
    Мир принадлежит тебе скачать торрент в хорошем качестве
    Мир принадлежит тебе смотреть онлайн бесплатно в хорошем качестве


    Вы не можете начинать темы
    Вы не можете отвечать на сообщения
    Вы не можете редактировать свои сообщения
    Вы не можете удалять свои сообщения
    Вы не можете голосовать в опросах
    Вы не можете прикреплять файлы к сообщениям
    Вы можете скачивать файлы