Достать ножи: Стеклянная луковица

MVO

Добыча

Дубляж

Уэнсдэй

1 сезон

Тор

Дубляж

13 клиническая

1 сезон

Жестокая ночь

MVO

Одни из нас

1 сезон

Deluxe

pack

Рекомендуем

30

Пиратка

ВАЖНО

ВАЖНО

Ghostwire

Пиратка

jed

RePack

nioh2

RePack

RDR2

RePack

NEED FOR SPEED™ PAYBACK

RePack

скачать торрент

Кинопоиск HD

Острые козырьки 6 сезон

6 сезон

FAR CRY 6

RePack

скачать торрент

Лицензия

скачать торрент

MVO

1

1 сезон

скачать торрент

1 сезон

скачать торрент

Лицензия

  

Закон ночи / Live by Night (Бен Аффлек) [2016 г., Боевик, триллер, драма, криминал, UHD WEBRip 2160p] [SDR] Дубляж [Лицензия]

Закон ночи через торрент piratbit.org

Размер: 22.2 GB | Добавлен: 4 года 1 мес. назад | Торрент скачан:47 раз
Смотреть онлайн | Скачать | Поддержите нас   

11-12-2018 09:35 Закон ночи Скачать торрент  


Закон ночи / Live by Night«Он был хорошим парнем. Когда-то»

Год выпуска: 2016
Страна: США
Жанр: Боевик, триллер, драма, криминал
Продолжительность: 02:08:41
Перевод: Дублированный | Лицензия
Субтитры: Русские, английские
Режиссер: Бен Аффлек
В ролях:
Бен Аффлек, Элль Фэннинг, Ремо Джироне, Брендан Глисон, Роберт Гленистер, Мэттью Мехер, Крис Мессина, Сиенна Миллер, Мигель, Зои Салдана
Описание:
Действие происходит в Америке времен сухого закона. Главный герой картины, сын полицейского, зарабатывает бутлегерством, в результате чего он оказывается вовлечен в жизнь криминального мира.
rating
Качество: UHD WEBRip 2160p | SDR
Формат: MKV
Видео: HEVC, 20.8 Мбит/с, 3840x2160
Аудио №1: Russian / Dolby Digital Audio / 5.1 / 48 kHz / 448 kbps Дубляж Blu-Ray
Аудио №2: English / TrueHD+Atmos / 7.1 / 48 kHz / 3374 kbps
Навигация по главам: Есть

General
Unique ID : 298492068866800071764479018788171933004 (0xE08F7B3A5C6434646279C9C60289E54C)
Complete name : W:\Downloads\Releases\Live.by.Night.2016.WEBRip.TrueHD.Atmos.7.1.HEVC.SDR.2160p.mkv
Format : Matroska
Format version : Version 4 / Version 2
File size : 22.2 GiB
Duration : 2 h 8 min
Overall bit rate mode : Variable
Overall bit rate : 24.7 Mb/s
Encoded date : UTC 2018-12-11 07:29:35
Writing application : mkvmerge v29.0.0 ('Like It Or Not') 64-bit
Writing library : libebml v1.3.6 + libmatroska v1.4.9
Attachments : poster.jpg

Video
ID : 1
Format : HEVC
Format/Info : High Efficiency Video Coding
Format profile : Main 10@L5@High
Codec ID : V_MPEGH/ISO/HEVC
Duration : 2 h 8 min
Bit rate : 20.8 Mb/s
Width : 3 840 pixels
Height : 2 160 pixels
Display aspect ratio : 16:9
Frame rate mode : Constant
Frame rate : 23.976 (24000/1001) FPS
Standard : Component
Color space : YUV
Chroma subsampling : 4:2:0
Bit depth : 10 bits
Bits/(Pixel*Frame) : 0.105
Stream size : 18.7 GiB (84%)
Default : Yes
Forced : No
Color range : Limited
Color primaries : BT.709
Transfer characteristics : BT.709
Matrix coefficients : BT.709

Audio #1
ID : 2
Format : AC-3
Format/Info : Audio Coding 3
Codec ID : A_AC3
Duration : 2 h 8 min
Bit rate mode : Constant
Bit rate : 448 kb/s
Channel(s) : 6 channels
Channel positions : Front: L C R, Side: L R, LFE
Sampling rate : 48.0 kHz
Frame rate : 31.250 FPS (1536 SPF)
Bit depth : 16 bits
Compression mode : Lossy
Delay relative to video : -74 ms
Stream size : 412 MiB (2%)
Title : AC3 5.1 @ 448 kbps - Дубляж, Blu-ray CEE
Language : Russian
Service kind : Complete Main
Default : Yes
Forced : No

Audio #2
ID : 3
Format : TrueHD
Format profile : TrueHD+Atmos / TrueHD
Codec ID : A_TRUEHD
Duration : 2 h 8 min
Bit rate mode : Variable
Bit rate : 3 374 kb/s
Maximum bit rate : 7 608 kb/s
Channel(s) : Object Based / 8 channels
Channel positions : Object Based / Front: L C R, Side: L R, Back: L R, LFE
Sampling rate : / 48.0 kHz
Frame rate : 1 200.000 FPS (40 SPF)
Compression mode : Lossless
Delay relative to video : -74 ms
Stream size : 3.03 GiB (14%)
Title : English TrueHD Atmos 7.1
Language : English
Default : No
Forced : No

Text #1
ID : 4
Format : UTF-8
Codec ID : S_TEXT/UTF8
Codec ID/Info : UTF-8 Plain Text
Duration : 1 h 57 min
Bit rate : 1 b/s
Count of elements : 25
Stream size : 1 019 Bytes (0%)
Title : Forced
Language : Russian
Default : Yes
Forced : No

Text #2
ID : 5
Format : UTF-8
Codec ID : S_TEXT/UTF8
Codec ID/Info : UTF-8 Plain Text
Duration : 2 h 8 min
Bit rate : 98 b/s
Count of elements : 1623
Stream size : 92.1 KiB (0%)
Title : Full
Language : Russian
Default : No
Forced : No

Text #3
ID : 6
Format : UTF-8
Codec ID : S_TEXT/UTF8
Codec ID/Info : UTF-8 Plain Text
Duration : 2 h 0 min
Bit rate : 59 b/s
Count of elements : 1596
Stream size : 53.0 KiB (0%)
Title : Full
Language : English
Default : No
Forced : No

Menu
00:00:00.000 : en:00:00:00.000
00:11:12.797 : en:00:11:12.797
00:20:26.267 : en:00:20:26.267
00:33:14.659 : en:00:33:14.659
00:43:34.070 : en:00:43:34.070
00:52:53.087 : en:00:52:53.087
01:02:26.534 : en:01:02:26.534
01:12:47.530 : en:01:12:47.530
01:24:12.714 : en:01:24:12.714
01:34:19.863 : en:01:34:19.863
01:38:15.723 : en:01:38:15.723
01:48:57.948 : en:01:48:57.948
01:53:29.970 : en:01:53:29.970
02:01:57.143 : en:02:01:57.143



Скачать Закон ночи через торрент https://b.radikal.ru/b06/1812/f9/91071cb8f4fd.png Скачать, смотреть онлайн Закон ночи бесплантно в хорошем качестве Описание: Действие происходит в Америке времен сухого закона. Главный герой картины, сын полицейского, зарабатывает бутлегерством, в ... 9.7 10 3
Торрент: Зарегистрирован [2018-12-11 09:35] · скачан: 47 раз
Статус: √ проверено
Размер: 22.2 GB
Как cкачать? Как скачать Закон ночи через торрент | UTorrent

% Раздел Тема Автор DL S | L
Фильмы (HD 720p, 1080p) (48-60 fps) [ 3.8 GB ] Закон ночи / Live by Night | DUB | DLRip - HEVC 1080p 10 bit 60 FPS, DUB dd2d3 Скачать
1 | 0
Фильмы 2016 [DVDrip, WEB-DLRip, HDrip] (DUB, MVO) [ 1.46 GB ] Закон ночи / Live by Night | Лицензия | BDRip Twi7ter Скачать
1 | 0
Фильмы (Blu-ray, BD-Remux, HDDVD) [ 26.53 GB ] Закон ночи / Live by Night | Лицензия | 1080p Russian Mafia Скачать
1 | 0
Фильмы [HD 720p, 1080p] (Хороший звук DUB, MVO) [ 12.68 GB ] Закон ночи / Live by Night | Лицензия | 1080p -Lexx- Скачать
1 | 0
Фильмы 2016 [DVDrip, WEB-DLRip, HDrip] (DUB, MVO) [ 2.18 GB ] Закон ночи / Live by Night | Лицензия | BDRip Twi7ter Скачать
1 | 0
R.G. Resident & PiratVoice - Фильмы, Видео [ 5.29 GB ] Закон ночи / Live by Night | Лицензия | 720p от R.G.Resident Хорват Скачать
1 | 0
Фильмы 2016 [DVDrip, WEB-DLRip, HDrip] (DUB, MVO) [ 2.24 GB ] Закон ночи / Live by Night | Лицензия | BDRip-AVC Enigma2010 Скачать
1 | 0

28-11-2019 20:33  


Отключить вcю реклaмy на сайте, в т.ч. и в плеере онлайн просмотра!

01-01-2019 08:05 Закон ночи Скачать торрент  

Не качайте, файл кривой примерно с 1:01:55 артефачит
И таких моментов куча. СМотрел на двух плеерах на ПК и на смарт ТВ. Везде артифачит и пропускает.
Артефакты также на 00:24:45 и так далее. Лень выискивать.



01-01-2019 08:18 Закон ночи Скачать торрент  

RussiaRuleZzZ писал(а):

Не качайте, файл кривой примерно с 1:01:55 артефачит
И таких моментов куча. СМотрел на двух плеерах на ПК и на смарт ТВ. Везде артифачит и пропускает.
Артефакты также на 00:24:45 и так далее. Лень выискивать.

Вполне возможно, но более волнует другой вопрос, а чего мля ДРУГИЕ 19 скачавших молчат!



01-01-2019 15:41 Закон ночи Скачать торрент  

sheker187 писал(а):

RussiaRuleZzZ писал(а):

Не качайте, файл кривой примерно с 1:01:55 артефачит
И таких моментов куча. СМотрел на двух плеерах на ПК и на смарт ТВ. Везде артифачит и пропускает.
Артефакты также на 00:24:45 и так далее. Лень выискивать.

Вполне возможно, но более волнует другой вопрос, а чего мля ДРУГИЕ 19 скачавших молчат!

Понятия не имею, может они в угаре, может даже не смотрели.
У меня херова туча фильмов на дике от 4 гб до 60 гб, 4к, и вообще черт знает каких. И артефачит и глючит только этот, причем на разных девайсах и плеерах. По теории исключения проблема явно в этом файле.
СКачал с рутрекера 41 гиговую версию 4к - проблем никаких нет.



    Дорогой пользователь! Огромная просьба, поблагодарите релизера, оцените раздачу и оставьте свои комментарий, если Вы скачали Закон ночи через торрент бесплатно!!
    Комментировать посты могут только пользователи прошедшие не сложную регистрацию
    Показать сообщения:    


    Закон ночи через торрент
    Скачать бесплатно Закон ночи
    Закон ночи скачать торрент
    Закон ночи смотреть онлайн
    Cкачать фильм Закон ночи бесплатно
    Закон ночи скачать торрент в хорошем качестве
    Закон ночи смотреть онлайн бесплатно в хорошем качестве
    Вы не можете начинать темы
    Вы не можете отвечать на сообщения
    Вы не можете редактировать свои сообщения
    Вы не можете удалять свои сообщения
    Вы не можете голосовать в опросах
    Вы не можете прикреплять файлы к сообщениям
    Вы можете скачивать файлы
    Закон ночи / Live by Night [2016 г., Боевик, триллер, драма, криминал, UHD WEBRip 2160p] [SDR] Дубляж [Лицензия] смотреть онлайн, скачать торрент picoco.icu