2 сезон

iTunes

WEBRip

1

2 сезон

iTunes

1 сезон

1 сезон

RePack

30

Ultimate

ВАЖНО

ИГРА 18+

pack

RePack

MK11
pack

Легкие деньги

RePack

jed

RePack

fifa19

RePack

RDR2

RePack

NEED FOR SPEED™ PAYBACK

4 сезон

9 сезон

Бесстыжие 9 сезон

Все сериалы

все сериалы на PB.wtf

RePack

FAR CRY 5

Anonymous, доброй ночи, мы не успеваем собрать деньги на оплату серверов за февраль, помогите нам пожалуйста в это трудное время. В качестве благодарности мы отключим Вам всю рекламу на сайте (укажите свой ник в строку Ваше имя)!

×
  
Magnet ссылка

Агент Джонни Инглиш 3.0 / Johnny English Strikes Again (Дэвид Керр) [2018, боевик, комедия, приключения, BDRip 1080p] DUB [UKR] piratbit.org

Агент Джонни Инглиш 3.0 через торрент piratbit.org

Размер: 8.17 GB | Добавлен: 2 года 2 мес. назад | Торрент скачан:115 раз
Скачать  

19-12-2018 01:19 Агент Джонни Инглиш 3.0 Скачать торрент  

Агент Джонни Инглиш 3.0 / Johnny English Strikes Again Год выпуска: 2018
Страна: Великобритания, Франция, США
Жанр: боевик, комедия, приключения
Продолжительность: 01:28:33
Перевод: Дублированный | Украинский
Субтитры: Английские

Режиссер: Дэвид Керр

rating


В ролях:

Эмма Томпсон, Ольга Куриленко, Роуэн Эткинсон, Джейк Лэси, Бен Миллер, Миранда Хеннесси, Адам Джеймс, Пиппа Беннетт-Уорнер, Ирена Тишина, Джеймс Илс

Описание:

Когда все агенты секретной службы Её Величества внезапно выходят из строя, в игру вступает запасной вариант. Образец английского стиля и любимец роковых красоток; король безвыходных ситуаций и хранитель аналоговых традиций в цифровом мире, агент Джонни Инглиш - боль и гордость британской разведки. Этому парню есть что взбалтывать, и он взболтает не по-детски.

Качество: BDRip 1080p
Формат: MKV

Видео: MPEG-4 AVC, 11,5 Mбит/с, 1920x804
Аудио#1: Украинский (AC3, 2 ch, 192 Кбит/с)
Аудио#2: английский (DTS, 6 ch, 1509 Кбит/с)
скриншот  скриншот  скриншот  

Общее
Уникальный идентификатор : 175473155147704239186149618855267342505 (0x8402E680305A7436A2CDB6838DF118A9)
Полное имя : D:\Johnny.English.Strikes.Again.2018.1080p.BDRip.Ukr.Eng.mkv
Формат : Matroska
Версия формата : Version 4 / Version 2
Размер файла : 8,17 Гбайт
Продолжительность : 1 ч. 28 м.
Общий поток : 13,2 Мбит/сек
Название фильма : Johnny.English.Strikes.Again.2018.1080p.BluRay.x264.DTS-FGT
Дата кодирования : UTC 2018-12-18 20:52:37
Программа кодирования : mkvmerge v8.3.0 ('Over the Horizon') 64bit
Библиотека кодирования : libebml v1.3.1 + libmatroska v1.4.2

Видео
Идентификатор : 1
Формат : AVC
Формат/Информация : Advanced Video Codec
Профиль формата : High@L4.1
Параметр CABAC формата : Да
Параметр RefFrames формата : 4 кадра
Идентификатор кодека : V_MPEG4/ISO/AVC
Продолжительность : 1 ч. 28 м.
Битрейт : 11,5 Мбит/сек
Ширина : 1920 пикселей
Высота : 804 пикселя
Соотношение сторон : 2,40:1
Режим частоты кадров : Постоянный
Частота кадров : 23,976 (24000/1001) кадра/сек
Цветовое пространство : YUV
Субдискретизация насыщенности : 4:2:0
Битовая глубина : 8 бит
Тип развёртки : Прогрессивная
Бит/(Пиксели*Кадры) : 0.311
Размер потока : 6,95 Гбайт (85%)
Заголовок : Johnny.English.Strikes.Again.2018.1080p.BluRay.x264.DTS-FGT
Библиотека кодирования : x264 core 148 r2795M aaa9aa8
Настройки программы : cabac=1 / ref=4 / deblock=1:-2:-2 / analyse=0x3:0x113 / me=umh / subme=9 / psy=1 / psy_rd=1.00:0.15 / mixed_ref=1 / me_range=16 / chroma_me=1 / trellis=2 / 8x8dct=1 / cqm=0 / deadzone=21,11 / fast_pskip=1 / chroma_qp_offset=-3 / threads=24 / lookahead_threads=3 / sliced_threads=0 / nr=0 / decimate=1 / interlaced=0 / bluray_compat=0 / constrained_intra=0 / bframes=3 / b_pyramid=2 / b_adapt=1 / b_bias=0 / direct=3 / weightb=1 / open_gop=0 / weightp=2 / keyint=250 / keyint_min=25 / scenecut=40 / intra_refresh=0 / rc_lookahead=50 / rc=2pass / mbtree=1 / bitrate=11500 / ratetol=1.0 / qcomp=0.60 / qpmin=0 / qpmax=69 / qpstep=4 / cplxblur=20.0 / qblur=0.5 / vbv_maxrate=31250 / vbv_bufsize=31250 / nal_hrd=none / filler=0 / ip_ratio=1.40 / aq=1:1.00
Язык : English
Default : Да
Forced : Нет

Аудио #1
Идентификатор : 2
Формат : AC-3
Формат/Информация : Audio Coding 3
Расширение режима : CM (complete main)
Параметр Endianness формата : Big
Идентификатор кодека : A_AC3
Продолжительность : 1 ч. 28 м.
Вид битрейта : Постоянный
Битрейт : 192 Кбит/сек
Каналы : 2 канала
Расположение каналов : Front: L R
Частота : 48,0 КГц
Частота кадров : 31,250 кадров/сек (1536 spf)
Метод сжатия : С потерями
Размер потока : 122 Мбайт (1%)
Язык : Ukrainian
Default : Да
Forced : Нет

Аудио #2
Идентификатор : 3
Формат : DTS
Формат/Информация : Digital Theater Systems
Режим : 16
Параметр Endianness формата : Big
Идентификатор кодека : A_DTS
Продолжительность : 1 ч. 28 м.
Вид битрейта : Постоянный
Битрейт : 1509 Кбит/сек
Каналы : 6 каналов
Расположение каналов : Front: L C R, Side: L R, LFE
Частота : 48,0 КГц
Частота кадров : 93,750 кадра/сек (512 spf)
Битовая глубина : 24 бит
Метод сжатия : С потерями
Размер потока : 956 Мбайт (11%)
Язык : English
Default : Нет
Forced : Нет

Текст
Идентификатор : 4
Формат : UTF-8
Идентификатор кодека : S_TEXT/UTF8
Идентификатор кодека/Информация : UTF-8 Plain Text
Язык : English
Default : Нет
Forced : Нет

Меню
00:00:00.000 : :Chapter 01
00:05:06.681 : :Chapter 02
00:09:05.378 : :Chapter 03
00:13:14.794 : :Chapter 04
00:19:22.369 : :Chapter 05
00:21:31.832 : :Chapter 06
00:26:41.975 : :Chapter 07
00:32:31.240 : :Chapter 08
00:34:48.085 : :Chapter 09
00:39:49.428 : :Chapter 10
00:45:49.121 : :Chapter 11
00:51:22.204 : :Chapter 12
00:54:31.851 : :Chapter 13
00:58:58.201 : :Chapter 14
01:02:58.441 : :Chapter 15
01:08:21.597 : :Chapter 16
01:11:40.963 : :Chapter 17
01:15:03.415 : :Chapter 18
01:20:54.808 : :Chapter 19
01:23:52.527 : :Chapter 20

piratbit.org



Скачать Агент Джонни Инглиш 3.0 через торрент https://pic1.kartinco.top/images/11/1jyfm.jpg Скачать фильм Агент Джонни Инглиш 3.0 через торрент бесплантно в хорошем качестве Описание: Когда все агенты секретной службы Её Величества внезапно выходят из строя, в игру вступает запасной вариант. Образец английского ... 10 10 5
Торрент: Зарегистрирован [2018-12-19 01:19] · скачан: 115 раз
Статус: T временная
Размер: 8.17 GB
Как cкачать? Как скачать Агент Джонни Инглиш 3.0 через торрент | UTorrent

% Раздел Тема Автор DL S | L
Ultra HD (UHD: 2K, 4K, 8K) — видео сверхвысокой чёткости [ 51.15 GB ] Агент Джонни Инглиш 3.0 / Johnny English Strikes Again [2018 UHD Blu-Ray 2160p] DUB [] bober100 Скачать
1 | 0
Ultra HD (UHD: 2K, 4K, 8K) — видео сверхвысокой чёткости [ 20.03 GB ] Агент Джонни Инглиш 3.0 / Johnny English Strikes Again [2018 UHD BDRip 2160p] [SDR] DUB [] sheker187 Скачать
1 | 0
Фильмы [HD 720p, 1080p] (Хороший звук DUB, MVO) [ 7.98 GB ] Агент Джонни Инглиш 3.0 / Johnny English Strikes Again [2018 BDRip 1080p] DUB [] bober100 Скачать
1 | 0
Фильмы 2018 [DVDrip, WEB-DLRip, HDrip] (DUB, MVO) [ 1.46 GB ] Агент Джонни Инглиш 3.0 / Johnny English Strikes Again [2018 BDRip] - [] Twi7ter Скачать
3 | 0
T Фильмы [HD 720p, 1080p] (Хороший звук DUB, MVO) [ 4.6 GB ] Агент Джонни Инглиш 3.0 / Johnny English Strikes Again [2018 BDRip 720p] DUB +MVO [HDrezka Studio] bober100 Скачать
2 | 0
Фильмы [HD 720p, 1080p] (Хороший звук DUB, MVO) [ 4.77 GB ] Агент Джонни Инглиш 3.0 / Johnny English Strikes Again [2018 BDRip 720p] DUB [] bober100 Скачать
1 | 0
Ultra HD (UHD: 2K, 4K, 8K) — видео сверхвысокой чёткости [ 10.07 GB ] Агент Джонни Инглиш 3.0 / Johnny English Strikes Again [2018 UHD BDRip 2160p] DUB [] sheker187 Скачать
1 | 0

28-11-2019 20:33  

Отключить всю рекламу на сайте

    Дорогой пользователь! Огромная просьба, поблагодарите релизера, оцените раздачу и оставьте свои комментарий, если Вы скачали Агент Джонни Инглиш 3.0 через торрент бесплатно! Внесите свою лепту в развитие PiratBit!
    Комментировать посты могут только пользователи прошедшие не сложную регистрацию
    Показать сообщения:    

    Агент Джонни Инглиш 3.0 через торрент
    Скачать бесплатно Агент Джонни Инглиш 3.0
    Агент Джонни Инглиш 3.0 скачать торрент
    Агент Джонни Инглиш 3.0 смотреть онлайн
    Cкачать фильм Агент Джонни Инглиш 3.0 бесплатно
    Агент Джонни Инглиш 3.0 скачать торрент в хорошем качестве
    Агент Джонни Инглиш 3.0 смотреть онлайн бесплатно в хорошем качестве


    Вы не можете начинать темы
    Вы не можете отвечать на сообщения
    Вы не можете редактировать свои сообщения
    Вы не можете удалять свои сообщения
    Вы не можете голосовать в опросах
    Вы не можете прикреплять файлы к сообщениям
    Вы можете скачивать файлы