1 сезон

3 сезон

iTunes

1

iTunes

DUB Netflix

iTunes

13

1 сезон

RePack

30

Deluxe

pack

Легкие деньги

ВАЖНО

ИГРА 18+

pack

RePack

MK11

RePack

jed

RePack

fifa19

RePack

RDR2

RePack

NEED FOR SPEED™ PAYBACK

4 сезон

9 сезон

Бесстыжие 9 сезон

Все сериалы

все сериалы на PB.wtf

RePack

FAR CRY 5

Anonymous, добрый день, мы не успеваем до 1 числа собрать деньги на оплату серверов, помогите нам пожалуйста в это трудное время. В качестве благодарности мы отключим Вам всю рекламу на сайте (укажите свой ник в строку Ваше имя)!

×
  
Magnet ссылка

Улица / Сезон: 3 / Серии: 1-66 из 66 (Жанна Кадникова, Николай Бурлак, Михаил Соловьёв) [2018, Комедия, драма, WEB-DLRip] piratbit.org

Улица через торрент piratbit.org

Размер: 18.94 GB | Добавлен: 2 года 5 мес. назад | Торрент скачан:43 раза
Скачать  

20-12-2018 21:31 Улица Скачать торрент  

УлицаГод выпуска: 2018
Страна: Россия
Жанр: Комедия, драма
Продолжительность: ~ 00:25:00
Перевод: Не требуется
Субтитры: отсутствуют

Режиссер: Жанна Кадникова, Николай Бурлак, Михаил Соловьёв



В ролях:

Егор Клинаев, Ольга Баранова, Владимир Хацкевич, Екатерина Седик, Павел Савинков, Сергей Змичеревский, Артемий Падалка, Марина Богатова, Ксения Жданова, Марта Дромашко, Александр Терехов

Описание:

«Улица» — это история жителей одной из улиц спального района большого города. Школьники и студенты, домохозяйки и продавцы, олигархи и простые рабочие — здесь встретятся более 30 персонажей разного возраста и социального статуса, у каждого из них своя история. В большой Вселенной «Улицы» нет главных и второстепенных героев, здесь есть бурная жизнь с ее радостями, горестями, казусами и косяками, страхами, любовными переживаниями и трагедиями. Это история про всех нас и наших соседей.

Качество: WEB-DLRip
Формат: AVI

Видео: XviD, ~ 1650 Кбит/с, 720x400
Аудио: Русский (AC3, 2 ch, 192 Кбит/с)
скриншот  скриншот  скриншот  скриншот  

General
Complete name : D:\Ulica.S03.WEB-DLRip.25Kuzmich\Ulica.s03e01.WEB-DLRip.25Kuzmich.avi
Format : AVI
Format/Info : Audio Video Interleave
File size : 267 MiB
Duration : 20mn 10s
Overall bit rate : 1 852 Kbps
Writing application : VirtualDubMod 1.5.10.3 | www.virtualdub-fr.org || (build 2550/release)
Writing library : VirtualDubMod build 2550/release

Video
ID : 0
Format : MPEG-4 Visual
Format profile : Advanced Simple@L5
Format settings, BVOP : 1
Format settings, QPel : No
Format settings, GMC : No warppoints
Format settings, Matrix : Default (MPEG)
Codec ID : XVID
Codec ID/Hint : XviD
Duration : 20mn 10s
Bit rate : 1 650 Kbps
Width : 720 pixels
Height : 400 pixels
Display aspect ratio : 16:9
Frame rate : 25.000 fps
Color space : YUV
Chroma subsampling : 4:2:0
Bit depth : 8 bits
Scan type : Progressive
Compression mode : Lossy
Bits/(Pixel*Frame) : 0.229
Stream size : 238 MiB (89%)
Writing library : XviD 1.2.1 (UTC 2008-12-04)

Audio
ID : 1
Format : AC-3
Format/Info : Audio Coding 3
Mode extension : CM (complete main)
Format settings, Endianness : Big
Codec ID : 2000
Duration : 20mn 9s
Bit rate mode : Constant
Bit rate : 192 Kbps
Channel count : 2 channels
Channel positions : Front: L R
Sampling rate : 48.0 KHz
Bit depth : 16 bits
Compression mode : Lossy
Stream size : 27.7 MiB (10%)
Alignment : Split accross interleaves
Interleave, duration : 40 ms (1.00 video frame)
Interleave, preload duration : 500 ms

piratbit.org



Скачать Улица через торрент http://i79.fastpic.ru/big/2018/1015/2e/07f113bfe4e081b9693eb9c241d81b2e.jpg Скачать фильм Улица через торрент бесплантно в хорошем качестве Описание: «Улица» — это история жителей одной из улиц спального района большого города. Школьники и студенты, домохозяйки и продавцы, ... 10 10 3
Торрент: Зарегистрирован [2018-12-20 21:31] · скачан: 43 раз
Статус: √ проверено
Размер: 18.94 GB
Как cкачать? Как скачать Улица через торрент | UTorrent

% Раздел Тема Автор DL S | L
TNT serials [ 42.85 GB ] Улица / Сезон: 3 / Серии: 1-66 из 66 [2018 WEB-DL 720p] bober100 Скачать
1 | 0
TNT serials [ 52.5 GB ] Улица / Сезон: 3 / Серии: 1-66 из 66 [2018 WEB-DL 1080p] bober100 Скачать
1 | 0
TNT serials [ 18.33 GB ] Улица / Сезон: 3 / Серии: 1-66 из 66 [2018 WEB-DLRip-AVC] bober100 Скачать
1 | 0

28-11-2019 20:33  

Отключить всю рекламу на сайте

    Дорогой пользователь! Огромная просьба, поблагодарите релизера, оцените раздачу и оставьте свои комментарий, если Вы скачали Улица через торрент бесплатно! Внесите свою лепту в развитие PiratBit!
    Комментировать посты могут только пользователи прошедшие не сложную регистрацию
    Показать сообщения:    

    Улица через торрент
    Скачать бесплатно Улица
    Улица скачать торрент
    Улица смотреть онлайн
    Cкачать фильм Улица бесплатно
    Улица скачать торрент в хорошем качестве
    Улица смотреть онлайн бесплатно в хорошем качестве


    Вы не можете начинать темы
    Вы не можете отвечать на сообщения
    Вы не можете редактировать свои сообщения
    Вы не можете удалять свои сообщения
    Вы не можете голосовать в опросах
    Вы не можете прикреплять файлы к сообщениям
    Вы можете скачивать файлы