Присоединяйтесь к нам в Telegram!, здесь всегда актуальный адрес сайта, оперативная поддержка и многое другое!!

>

5.9

iTunes

7.4

iTunes

9.4

1 сезон

1

7.4

2 сезон

7.2

iTunes

7.3

1 сезон

13

6.1

iTunes

8.3

Пиратка

30

ULTIMATE

pack

9.9

Лицензия

ВАЖНО

ИГРА 18+

pack

7.3

RePack

MK11

7.7

RePack

jed

7.8

RePack

fifa19

8.5

RePack

RDR2

RePack

NEED FOR SPEED™ PAYBACK

5 сезон

9 сезон

Бесстыжие 9 сезон

Все сериалы

все сериалы на PB.wtf

RePack

FAR CRY 5

Anonymous, доброй ночи, мы катастрофически не успеваем собрать деньги на оплату серверов, помогите нам пожалуйста 5,10,15р., для нас важна любая помощь . В качестве благодарности мы отключим Вам всю рекламу на сайте (укажите свой ник в строку Ваше имя)!

×
  
Magnet ссылка

Американская история ужасов: Шабаш / American Horror Story: Coven / Сезон: 3 / Серии: 1-13 из 13 (Брэдли Букер) [2013, Ужасы, драма, WEB-DLRip, MVO][Amedia] piratbit.org

Американская история ужасов: Шабаш через торрент piratbit.org

Размер: 5.45 GB | Добавлен: 2 года 11 мес. назад | Торрент скачан:16 раз
Смотреть онлайн Американская история ужасов: Шабаш | Скачать    Ребята, помогите собрать деньги на оплату серверов!!!

10-01-2014 01:21 Американская история ужасов: Шабаш Скачать торрент  

Американская история ужасов: Шабаш / American Horror Story: Coven

3 сезон
«You're going to die in there!»
Год выпуска: 2013
Страна: США
Жанр: Ужасы, драма
Продолжительность: 13 ~ 00:50:54
Перевод: Профессиональный многоголосый [Amedia]
Субтитры: нет
В ролях:
Сара Полсон, Эван Питерс, Таисса Фармига, Лили Рэйб, Фрэнсис Конрой, Джессика Лэнг, Кэти Бэйтс, Эмма Робертс, Дэнис О’Харе, Анджела Бассетт, Алекс Брекенридж, Пэтти Люпон, Габури Сидибе
Режиссёр:
Брэдли Букер, Майкл Аппендаль, Альфонсо Гомез-Рейон, Майкл Леманн
Молодая девушка по имени Зои обнаруживает у себя странное генетическое несчастье, прослеживающееся до темных дней Салема. Ее отправляют в уникальную Академию для исключительных молодых особ в Новом Орлеане, которые разделяют эту родословную. Тем временем Фиона Гуд, самая влиятельная ведьма их поколения, возвращается в город, повторно зажигая старую конкуренцию со смертельными врагами Шабаша ведьм.

Качество: WEB-DLRip
Формат: AVI
Видео кодек: XviD
Аудио кодек: AC3
Видео: 720x400 (1.80:1), 23.976 fps, XviD build 64 ~1184 kbps avg, 0.17 bit/pixel
Аудио1: 48 kHz, MP3, 2 ch, ~128.00 kbps avg - русский
Аудио2: 48 kHz, MP3, 2 ch, ~128.00 kbps avg - английский

Общее
Полное имя : D:\Американская история ужасов-3 Шабаш\ahs.s03e01.avi
Формат : AVI
Формат/Информация : Audio Video Interleave
Размер файла : 550 Мбайт
Продолжительность : 50 м. 54 с.
Общий поток : 1510 Кбит/сек
Программа кодирования : VirtualDubMod 1.5.10.2 (build 2540/release)
Библиотека кодирования : VirtualDubMod build 2540/release

Видео
Идентификатор : 0
Формат : MPEG-4 Visual
Профиль формата : Advanced Simple@L5
Настройки формата : BVOP2
Параметр BVOP формата : 2
Параметр QPel формата : Нет
Параметр GMC формата : Без точки перехода
Параметр матрицы формата : Default (MPEG)
Идентификатор кодека : XVID
Идентификатор кодека/Подсказка : XviD
Продолжительность : 50 м. 54 с.
Битрейт : 1184 Кбит/сек
Ширина : 720 пикселей
Высота : 400 пикселей
Соотношение сторон : 16:9
Частота кадров : 23,976 (24000/1001) кадра/сек
Цветовое пространство : YUV
Субдискретизация насыщенности : 4:2:0
Битовая глубина : 8 бит
Тип развёртки : Прогрессивная
Метод сжатия : С потерями
Бит/(Пиксели*Кадры) : 0.171
Размер потока : 431 Мбайт (78%)
Библиотека кодирования : XviD 64

Аудио #1
Идентификатор : 1
Формат : MPEG Audio
Версия формата : Version 1
Профиль формата : Layer 3
Настройки формата : Joint stereo / MS Stereo
Идентификатор кодека : 55
Идентификатор кодека/Подсказка : MP3
Продолжительность : 50 м. 54 с.
Вид битрейта : Постоянный
Битрейт : 128 Кбит/сек
Каналы : 2 канала
Частота : 48,0 КГц
Метод сжатия : С потерями
Размер потока : 46,6 Мбайт (8%)
Выравнивание : Соединение по промежуткам

Аудио #2
Идентификатор : 2
Формат : MPEG Audio
Версия формата : Version 1
Профиль формата : Layer 3
Настройки формата : Joint stereo / MS Stereo
Идентификатор кодека : 55
Идентификатор кодека/Подсказка : MP3
Продолжительность : 50 м. 54 с.
Вид битрейта : Постоянный
Битрейт : 128 Кбит/сек
Каналы : 2 канала
Частота : 48,0 КГц
Частота кадров : 41,667 кадра/сек (1152 SPF)
Метод сжатия : С потерями
Размер потока : 46,6 Мбайт (8%)
Выравнивание : Соединение по промежуткам
Библиотека кодирования : LAME3.99r
Настройки программы : -m j -V 4 -q 2 -lowpass 17 -b 128
скриншот   скриншот   скриншот   скриншот  
piratbit.org



Скачать Американская история ужасов: Шабаш через торрент https://pic1.kartinco.top/images/12/bl349.jpg Скачать, смотреть онлайн Американская история ужасов: Шабаш бесплантно в хорошем качестве В ролях: Сара Полсон, Эван Питерс, Таисса Фармига, Лили Рэйб, Фрэнсис Конрой, Джессика Лэнг, Кэти Бэйтс, Эмма Робертс, Дэнис О’Харе, ... 9.6 10 67
Торрент: Зарегистрирован [2018-12-24 11:42] · скачан: 16 раз
Статус: √ проверено
Размер: 5.45 GB
Как cкачать? Как скачать Американская история ужасов: Шабаш через торрент | UTorrent



Последний раз редактировалось: Cталин (2014-01-31 17:50), всего редактировалось 4 раз(а)

28-11-2019 20:33  

Отключить всю рекламу на сайте

10-01-2014 01:28 Американская история ужасов: Шабаш Скачать торрент  

Отличный сериал, советую! yespiratbit.org





Последний раз редактировалось: Cталин (2014-01-10 01:29), всего редактировалось 1 раз

10-01-2014 01:29 Американская история ужасов: Шабаш Скачать торрент  

haizenberg
piratbit.org



10-01-2014 20:42 Американская история ужасов: Шабаш Скачать торрент  

вот это спасибо!!!сериал действительно хорош!! piratbit.org



11-01-2014 21:20 Американская история ужасов: Шабаш Скачать торрент  

отличный сериалpiratbit.org



19-01-2014 10:42 Американская история ужасов: Шабаш Скачать торрент  

Торрент-файл перезалит, добавлена 11 серия!piratbit.org



23-01-2014 23:18 Американская история ужасов: Шабаш Скачать торрент  

Торрент-файл перезалит, добавлена 12 серия!piratbit.org



31-01-2014 12:34 Американская история ужасов: Шабаш Скачать торрент  

Когда 13 серия?piratbit.org



31-01-2014 15:47 Американская история ужасов: Шабаш Скачать торрент  

Утилизатор писал(а):

Когда 13 серия?

Торрент-файл перезалит, добавлена 13 серия! Финал сезона!piratbit.org



09-02-2014 13:53 Американская история ужасов: Шабаш Скачать торрент  

Замечательный сериал! piratbit.org



21-05-2014 09:49 Американская история ужасов: Шабаш Скачать торрент  

скорости пожалуйста а то совсем нету(piratbit.org



19-08-2014 17:04 Американская история ужасов: Шабаш Скачать торрент  

скорость!............(((((((((((piratbit.org



27-02-2016 14:39 Американская история ужасов: Шабаш Скачать торрент  

второй сезон не особо впечатлил, посмотрим третий)piratbit.org



    Дорогой пользователь! Огромная просьба, поблагодарите релизера, оцените раздачу и оставьте свои комментарий, если Вы скачали Американская история ужасов: Шабаш через торрент бесплатно!
    Комментировать посты могут только пользователи прошедшие не сложную регистрацию
    Показать сообщения:    

    Американская история ужасов: Шабаш через торрент
    Скачать бесплатно Американская история ужасов: Шабаш
    Американская история ужасов: Шабаш скачать торрент
    Американская история ужасов: Шабаш смотреть онлайн
    Cкачать фильм Американская история ужасов: Шабаш бесплатно
    Американская история ужасов: Шабаш скачать торрент в хорошем качестве
    Американская история ужасов: Шабаш смотреть онлайн бесплатно в хорошем качестве


    Вы не можете начинать темы
    Вы не можете отвечать на сообщения
    Вы не можете редактировать свои сообщения
    Вы не можете удалять свои сообщения
    Вы не можете голосовать в опросах
    Вы не можете прикреплять файлы к сообщениям
    Вы можете скачивать файлы