Присоединяйтесь к нам в Telegram!, здесь всегда актуальный адрес сайта, оперативная поддержка и многое другое!!

>

5.9

iTunes

7.4

iTunes

9.4

1 сезон

1

7.4

2 сезон

7.2

iTunes

7.3

iTunes

13

6.1

iTunes

8.3

Пиратка

30

ULTIMATE

pack

9.9

Лицензия

ВАЖНО

ИГРА 18+

pack

7.3

RePack

MK11

7.7

RePack

jed

7.8

RePack

fifa19

8.5

RePack

RDR2

RePack

NEED FOR SPEED™ PAYBACK

5 сезон

9 сезон

Бесстыжие 9 сезон

Все сериалы

все сериалы на PB.wtf

RePack

FAR CRY 5

Anonymous, доброй ночи, мы катастрофически не успеваем собрать деньги на оплату серверов, помогите нам пожалуйста 5,10,15р., для нас важна любая помощь . В качестве благодарности мы отключим Вам всю рекламу на сайте (укажите свой ник в строку Ваше имя)!

×
  
Magnet ссылка

Американская история ужасов: Культ / American Horror Story: Cult / Сезон 7 / Серии 1-11 из 11 (Брэдли Букер, Альфонсо Гомес-Рехон, Майкл Аппендаль) [2017, ужасы, триллер, драма, WEB-DLRip] MVO [Novamedia] piratbit.org

Американская история ужасов: Культ через торрент piratbit.org

Размер: 7.06 GB | Добавлен: 2 года 11 мес. назад | Торрент скачан:87 раз
Смотреть онлайн Американская история ужасов: Культ | Скачать    Ребята, помогите собрать деньги на оплату серверов!!!

04-10-2017 12:30 Американская история ужасов: Культ Скачать торрент  

Американская история ужасов: Культ / American Horror Story: CultГод выпуска: 2017
Страна: США
Жанр: ужасы, триллер, драма
Продолжительность: 11 ~ 00:46:00
Перевод: Профессиональный (многоголосый) Novamedia по заказу Amedia
Субтитры: отсутствуют

Режиссер: Брэдли Букер, Альфонсо Гомес-Рехон, Майкл Аппендаль

rating

В ролях:

Эван Питерс, Сара Полсон, Дэнис О’Хэр, Джессика Лэнг, Кэти Бейтс, Анджела Бассетт, Лили Рэйб, Фрэнсис Конрой, Таисса Фармига, Эмма Робертс

Описание:

«Американская история ужасов», созданная и спродюсированная Райаном Мёрфи и Брэдом Фалчуком, запала в душу огромному числу ценителей жанра хоррор по всему миру. Сюжет сериала строится вокруг классических для американского хоррора тем (дом с привидениями, цирк уродов, психиатрическая лечебница и др.). Каждый сезон посвящен отдельной цепочке событий, от которых бегут мурашки по коже и в страхе замирает сердце. С 2011 года ни один поклонник мистических триллеров не упускает возможности посмотреть сериал «Американская история ужасов», чтобы пощекотать себе нервы новыми страшными и волнующими историями.

Сюжет нового седьмого сезона, вышедший под названием «Культ», начинается с показа отрывков из президентской кампании Дональда Трампа и Хиллари Клинтон. Герои серии с ужасом наблюдают за тем, как Дональд Трамп объявлен президентом Соединенных Штатов...

Качество: WEB-DLRip
Формат: AVI
Видео кодек: XviD
Аудио кодек: AC3

Видео: ~ 1600 Кбит/с, 720x400
Аудио#1: Русский (AC3, 2 ch, 192 Кбит/с)
Аудио#2: английский (AC3, 2 ch, 192 Кбит/с)
скриншот   скриншот   скриншот  

Общее
Полное имя : D:\American Horror Story (Season 07)\1ct0p14.Yzhas0B.KyLt.S07E01.Am3d1a..avi
Формат : AVI
Формат/Информация : Audio Video Interleave
Размер файла : 700 Мбайт
Продолжительность : 48 м. 36 с.
Общий поток : 2013 Кбит/сек
Программа кодирования : VirtualDubMod 1.5.10.2 (build 2540/release)
Библиотека кодирования : VirtualDubMod build 2540/release

Видео
Идентификатор : 0
Формат : MPEG-4 Visual
Профиль формата : Advanced Simple@L5
Параметр BVOP формата : 2
Параметр QPel формата : Нет
Параметр GMC формата : Без точки перехода
Параметр матрицы формата : Default (MPEG)
Идентификатор кодека : XVID
Идентификатор кодека/Подсказка : XviD
Продолжительность : 48 м. 36 с.
Битрейт : 1615 Кбит/сек
Ширина : 720 пикселей
Высота : 400 пикселей
Соотношение сторон : 16:9
Частота кадров : 23,976 (24000/1001) кадра/сек
Цветовое пространство : YUV
Субдискретизация насыщенности : 4:2:0
Битовая глубина : 8 бит
Тип развёртки : Прогрессивная
Метод сжатия : С потерями
Бит/(Пиксели*Кадры) : 0.234
Размер потока : 562 Мбайт (80%)
Библиотека кодирования : XviD 1.2.1 (UTC 2008-12-04)

Аудио #1
Идентификатор : 1
Формат : AC-3
Формат/Информация : Audio Coding 3
Расширение режима : CM (complete main)
Параметр Endianness формата : Big
Идентификатор кодека : 2000
Продолжительность : 48 м. 36 с.
Вид битрейта : Постоянный
Битрейт : 192 Кбит/сек
Каналы : 2 канала
Расположение каналов : Front: L R
Частота : 48,0 КГц
Частота кадров : 31,250 кадров/сек (1536 spf)
Метод сжатия : С потерями
Размер потока : 66,8 Мбайт (10%)
Выравнивание : Разделение по промежуткам
Продолжительность промежутка : 42 мс. (1,00 видеокадр)
Время предзагрузки промежутка : 500 мс.

Аудио #2
Идентификатор : 2
Формат : AC-3
Формат/Информация : Audio Coding 3
Расширение режима : CM (complete main)
Параметр Endianness формата : Big
Идентификатор кодека : 2000
Продолжительность : 48 м. 36 с.
Вид битрейта : Постоянный
Битрейт : 192 Кбит/сек
Каналы : 2 канала
Расположение каналов : Front: L R
Частота : 48,0 КГц
Частота кадров : 31,250 кадров/сек (1536 spf)
Метод сжатия : С потерями
Размер потока : 66,8 Мбайт (10%)
Выравнивание : Разделение по промежуткам
Продолжительность промежутка : 42 мс. (1,00 видеокадр)
Время предзагрузки промежутка : 500 мс.

Когда раздача ведётся путём добавления новых серий, при каждом добавлении создётся новый торрент. Чтобы начать докачку новой серии, пользователям необходимо сделать следующее:
(1) остановить скачивание,
(2) удалить старый торрент у себя из клиента (старые серии удалять не надо),
(3) скачать новый торрент и запустить его у себя в клиенте вместо старого, при этом указать клиенту путь в старую папку, куда и должно происходить скачивание новых серий.
Ваш клиент при этом должен произвести хеширование (проверку) старой папки (если не производит сам - помогите ему сделать это), и будет докачивать только те серии, которых у вас ещё нет. Старые серии при этом не удаляются, а продолжают раздаваться!
Eсли вы уже удалили старые серии, то предотвратить повторную закачку старых серий можно, отжав галочку в соответсвующих местах при запуске нового торрента. По возможности, желательно не удалять старые серии как можно дольше, чтобы релизер не столько продолжал раздавать старые серии, а смог сконцентрироваться на новых.
piratbit.org



Скачать Американская история ужасов: Культ через торрент http://s019.radikal.ru/i640/1709/b3/04a8512e38f3.png Скачать, смотреть онлайн Американская история ужасов: Культ бесплантно в хорошем качестве Описание: «Американская история ужасов», созданная и спродюсированная Райаном Мёрфи и Брэдом Фалчуком, запала в душу огромному числу ... 8.9 10 8
Торрент: Зарегистрирован [2018-12-24 11:25] · скачан: 87 раз
Статус: √ проверено
Размер: 7.06 GB
Как cкачать? Как скачать Американская история ужасов: Культ через торрент | UTorrent

% Раздел Тема Автор DL S | L
Американская история ужасов [ 35.21 GB ] Американская история ужасов: Культ / American Horror Story: Cult / Сезон 7 / Серии 1-11 из 11 [2017 WEB-DL 1080p] MVO [Novamedia] bober100 Скачать
1 | 0
Американская история ужасов [ 18.71 GB ] Американская история ужасов: Культ / American Horror Story: Cult / Сезон 7 / Серии 1-11 из 11 [2017 WEBRip 720p] MVO [BaibaKo] bober100 Скачать
1 | 0
Американская история ужасов [ 35.67 GB ] Американская история ужасов: Культ / American Horror Story: Cult / Сезон 7 / Серии 1-11 из 11 [2017 WEBRip 1080p] MVO [BaibaKo] bober100 Скачать
1 | 0

28-11-2019 20:33  

Отключить всю рекламу на сайте

    Дорогой пользователь! Огромная просьба, поблагодарите релизера, оцените раздачу и оставьте свои комментарий, если Вы скачали Американская история ужасов: Культ через торрент бесплатно!
    Комментировать посты могут только пользователи прошедшие не сложную регистрацию
    Показать сообщения:    

    Американская история ужасов: Культ через торрент
    Скачать бесплатно Американская история ужасов: Культ
    Американская история ужасов: Культ скачать торрент
    Американская история ужасов: Культ смотреть онлайн
    Cкачать фильм Американская история ужасов: Культ бесплатно
    Американская история ужасов: Культ скачать торрент в хорошем качестве
    Американская история ужасов: Культ смотреть онлайн бесплатно в хорошем качестве


    Вы не можете начинать темы
    Вы не можете отвечать на сообщения
    Вы не можете редактировать свои сообщения
    Вы не можете удалять свои сообщения
    Вы не можете голосовать в опросах
    Вы не можете прикреплять файлы к сообщениям
    Вы можете скачивать файлы