Присоединяйтесь к нам в Telegram!, здесь всегда актуальный адрес сайта, оперативная поддержка и многое другое!!

>

5.9

iTunes

7.4

iTunes

9.4

1 сезон

1

7.4

2 сезон

7.2

iTunes

7.3

1 сезон

13

6.1

iTunes

8.3

GOG

30

ULTIMATE

pack

9.9

Лицензия

ВАЖНО

ИГРА 18+

pack

7.3

RePack

MK11

7.7

RePack

jed

7.8

RePack

fifa19

8.5

RePack

RDR2

RePack

NEED FOR SPEED™ PAYBACK

5 сезон

9 сезон

Бесстыжие 9 сезон

Все сериалы

все сериалы на PB.wtf

RePack

FAR CRY 5

Anonymous, доброе утро, мы катастрофически не успеваем собрать деньги на оплату серверов, помогите нам пожалуйста 5,10,15р., для нас важна любая помощь . В качестве благодарности мы отключим Вам всю рекламу на сайте (укажите свой ник в строку Ваше имя)!

×
  
Magnet ссылка

Американская история ужасов: Шоу Уродов / American Horror Story: Freak Show / Сезон: 4 / Серии 1-13 из 13 (Брэдли Букер) [2013 г., Ужасы, драма, WEB-DLRip] MVO [BaibaKo] piratbit.org

Американская история ужасов: Шоу Уродов через торрент piratbit.org

Размер: 9.09 GB | Добавлен: 5 лет 11 мес. назад | Торрент скачан:332 раза
Смотреть онлайн Американская история ужасов: Шоу Уродов | Скачать    Ребята, помогите собрать деньги на оплату серверов!!!

10-10-2014 01:02 Американская история ужасов: Шоу Уродов Скачать торрент  

Американская история ужасов / American Horror Story
«Get committed»


  • Год выпуска: 2014
  • Страна: США
  • Жанр: ужасы, фэнтези, триллер, драма
  • Продолжительность: 01:05:03 (Серия)
  • Перевод: Профессиональный многоголосый закадровый) [BaibaKo]

  • В ролях:

    Эван Питерс (Jimmy Darling), Джессика Лэнг (Elsa Mars), Фрэнсис Конрой (Gloria Mott), Сара Полсон (Bette Tattler), Дэнис О’Хэйр (Spalding), Лили Рэйб (Misty Day), Эмма Робертс (Madison Montgomery), Кэти Бейтс (Ethel Darling), Таисса Фармига (Zoe Benson), Анджела Бассетт (Desiree Dupree), Габури Сидибе (Queenie), Закари Куинто (Dr. Oliver Thredson)

  • Описание:
    Психологический триллер, в центре сюжета которого терапевт и его жена, которые переживают не самый лучший этап в их супружеской жизни. Вместе с дочерью-подростком они переезжают в новый дом, который, как кажется, знает все их страхи и играет на них. Полное собрание национальных кошмаров. Мы уже видели дом с привидениями, больницу для душевнобольных преступников и ведьмовский шабаш. Настал черед цирка уродов. Флорида, 1950-е. Управляющая последним паноптикумом в стране собирается закрыть свое шоу. Но артисты-фрики не рады досрочной пенсии. Они сделают что угодно, чтобы жуткий цирк продолжал существовать.
  • Рейтинг:



  • Качество: WEB-DLRip
  • Формат: :AVI
  • Видео кодек: XviD
  • Аудио кодек: MP3
  • Видео: 720x400 (16:9), 1536 kbps, 23,976 fps, 0,222 bpp
  • Аудио №1: русский / 2.0 / 48 kHz / 192 kbps
  • Аудио №2: английский / 2.0 / 48 kHz / 192 kbps
  • Релиз от: GEKADOL

    Код:

    Внимание! Раздача ведётся путём добавления новых серий; при каждом добавлении создаётся новый торрент. Чтобы начать докачку новой серии, пользователям необходимо сделать следующее:
    (1) остановить скачивание,
    (2) удалить старый торрент у себя из клиента (старые серии удалять не надо),
    (3) скачать новый торрент и запустить его у себя в клиенте вместо старого, при этом указать клиенту путь в старую папку куда и должно происходить скачивание новых серий.
    Ваш клиент при этом должен произвести хеширование (проверку) старой папки (если не производит сам - помогите ему сделать это), и будет докачивать только те серии которых у вас ещё нет. Старые серии при этом не удаляются, а продолжают раздаваться!
    Eсли вы уже удалили старые серии, то предотвратить повторную закачку старых серий можно, отжав галочку в соответсвующих местах при запуске нового торрента. По возможности, желательно не удалять старые серии как можно дольше чтобы релизёр не столько продолжал раздавать старые серии, а смог сконцентрироваться на новых.


    Код:

    General
    Complete name                            : I:\Американская история ужасов4\American.Horror.Story.s04e01.WEB-DLRip.x264.Rus.Eng.BaibaKo.tv.mp4
    Format                                   : MPEG-4
    Format profile                           : Base Media
    Codec ID                                 : isom
    File size                                : 893 MiB
    Duration                                 : 1h 5mn
    Overall bit rate mode                    : Variable
    Overall bit rate                         : 1 919 Kbps
    Encoded date                             : UTC 2014-10-10 00:06:26
    Tagged date                              : UTC 2014-10-10 00:06:26

    Video
    ID                                       : 1
    Format                                   : AVC
    Format/Info                              : Advanced Video Codec
    Format profile                           : Baseline@L3.0
    Format settings, CABAC                   : No
    Format settings, ReFrames                : 3 frames
    Codec ID                                 : avc1
    Codec ID/Info                            : Advanced Video Coding
    Duration                                 : 1h 5mn
    Bit rate mode                            : Variable
    Bit rate                                 : 1 536 Kbps
    Maximum bit rate                         : 10 000 Kbps
    Width                                    : 720 pixels
    Height                                   : 400 pixels
    Display aspect ratio                     : 16:9
    Frame rate mode                          : Constant
    Frame rate                               : 23.976 fps
    Color space                              : YUV
    Chroma subsampling                       : 4:2:0
    Bit depth                                : 8 bits
    Scan type                                : Progressive
    Bits/(Pixel*Frame)                       : 0.222
    Stream size                              : 714 MiB (80%)
    Writing library                          : x264 core 135 r2345 f0c1c53
    Encoding settings                        : cabac=0 / ref=3 / deblock=1:0:0 / analyse=0x1:0x111 / me=hex / subme=7 / psy=1 / psy_rd=1.00:0.00 / mixed_ref=1 / me_range=16 / chroma_me=1 / trellis=1 / 8x8dct=0 / cqm=0 / deadzone=21,11 / fast_pskip=1 / chroma_qp_offset=-2 / threads=12 / lookahead_threads=2 / sliced_threads=0 / nr=0 / decimate=1 / interlaced=0 / bluray_compat=0 / constrained_intra=0 / bframes=0 / weightp=0 / keyint=240 / keyint_min=24 / scenecut=40 / intra_refresh=0 / rc_lookahead=40 / rc=2pass / mbtree=1 / bitrate=1536 / ratetol=1.0 / qcomp=0.60 / qpmin=0 / qpmax=69 / qpstep=4 / cplxblur=20.0 / qblur=0.5 / vbv_maxrate=10000 / vbv_bufsize=10000 / nal_hrd=vbr / ip_ratio=1.40 / aq=1:1.00
    Encoded date                             : UTC 2014-10-09 19:48:20
    Tagged date                              : UTC 2014-10-10 00:07:20

    Audio #1
    ID                                       : 2
    Format                                   : AAC
    Format/Info                              : Advanced Audio Codec
    Format profile                           : LC
    Codec ID                                 : 67
    Duration                                 : 1h 5mn
    Bit rate mode                            : Variable
    Bit rate                                 : 192 Kbps
    Maximum bit rate                         : 196 Kbps
    Channel(s)                               : 2 channels
    Channel positions                        : Front: L R
    Sampling rate                            : 48.0 KHz
    Compression mode                         : Lossy
    Stream size                              : 88.1 MiB (10%)
    Language                                 : Russian
    Encoded date                             : UTC 2014-10-10 00:06:45
    Tagged date                              : UTC 2014-10-10 00:07:20

    Audio #2
    ID                                       : 3
    Format                                   : AAC
    Format/Info                              : Advanced Audio Codec
    Format profile                           : LC
    Codec ID                                 : 67
    Duration                                 : 1h 5mn
    Bit rate mode                            : Variable
    Bit rate                                 : 192 Kbps
    Maximum bit rate                         : 196 Kbps
    Channel(s)                               : 2 channels
    Channel positions                        : Front: L R
    Sampling rate                            : 48.0 KHz
    Compression mode                         : Lossy
    Stream size                              : 88.1 MiB (10%)
    Language                                 : English
    Encoded date                             : UTC 2014-10-10 00:06:52
    Tagged date                              : UTC 2014-10-10 00:07:20


    Скриншоты:
    скриншот   скриншот   скриншот   скриншот   скриншот  
    скриншот  

    Раздача ведётся путём добавления новых серий. Добавлена 13 финальная серия (23.01.2015).Просьба перекачать торрент файл.

    piratbit.org



  • Скачать Американская история ужасов: Шоу Уродов через торрент http://i63.fastpic.ru/big/2014/1010/b3/190f4ce825fc813ddff98d2e341fdfb3.jpg Скачать, смотреть онлайн Американская история ужасов: Шоу Уродов бесплантно в хорошем качестве Описание: Психологический триллер, в центре сюжета которого терапевт и его жена, которые переживают не самый лучший этап в их супружеской ... 9.3 10 33
    Info! Золотая раздача, скачанное не засчитывается.
    Торрент: Зарегистрирован [2015-11-30 09:50] · скачан: 332 раз
    Статус: √ проверено
    Размер: 9.09 GB
    Как cкачать? Как скачать Американская история ужасов: Шоу Уродов через торрент | UTorrent

    % Раздел Тема Автор DL S | L
    Американская история ужасов [ 22.68 GB ] Американская история ужасов: Шоу Уродов / American Horror Story: Freak Show / Сезон: 4 / Серии 1-13 из 13 [2013 WEB-DL 720p] [BaibaKo] GEKADOL Скачать
    1 | 0


    Последний раз редактировалось: GEKADOL (2015-11-30 09:50), всего редактировалось 14 раз(а)

    28-11-2019 20:33  

    Отключить всю рекламу на сайте

    10-10-2014 03:09 Американская история ужасов: Шоу Уродов Скачать торрент  

    Исправьте название на Шоу Уродов. Шабаш название только 3 сезона. В раздаче WEB-DL 720p тоже самое)piratbit.org



    10-10-2014 03:33 Американская история ужасов: Шоу Уродов Скачать торрент  

    Wolowizard писал(а):

    Исправьте название на Шоу Уродов. Шабаш название только 3 сезона. В раздаче WEB-DL 720p тоже самое)

    ))) На работу торопился) Спасибо! В торопях поменять забыл)piratbit.org



    12-12-2014 15:01 Американская история ужасов: Шоу Уродов Скачать торрент  

    как сериал?piratbit.org



      Дорогой пользователь! Огромная просьба, поблагодарите релизера, оцените раздачу и оставьте свои комментарий, если Вы скачали Американская история ужасов: Шоу Уродов через торрент бесплатно!
      Комментировать посты могут только пользователи прошедшие не сложную регистрацию
      Показать сообщения:    

      Американская история ужасов: Шоу Уродов через торрент
      Скачать бесплатно Американская история ужасов: Шоу Уродов
      Американская история ужасов: Шоу Уродов скачать торрент
      Американская история ужасов: Шоу Уродов смотреть онлайн
      Cкачать фильм Американская история ужасов: Шоу Уродов бесплатно
      Американская история ужасов: Шоу Уродов скачать торрент в хорошем качестве
      Американская история ужасов: Шоу Уродов смотреть онлайн бесплатно в хорошем качестве


      Вы не можете начинать темы
      Вы не можете отвечать на сообщения
      Вы не можете редактировать свои сообщения
      Вы не можете удалять свои сообщения
      Вы не можете голосовать в опросах
      Вы не можете прикреплять файлы к сообщениям
      Вы можете скачивать файлы