Присоединяйтесь к нам в Telegram!, здесь всегда актуальный адрес сайта, оперативная поддержка и многое другое!!

>

5.9

iTunes

7.4

iTunes

9.4

1 сезон

1

7.4

2 сезон

7.2

iTunes

7.3

1 сезон

13

6.1

iTunes

8.3

GOG

30

ULTIMATE

pack

9.9

Лицензия

ВАЖНО

ИГРА 18+

pack

7.3

RePack

MK11

7.7

RePack

jed

7.8

RePack

fifa19

8.5

RePack

RDR2

RePack

NEED FOR SPEED™ PAYBACK

5 сезон

9 сезон

Бесстыжие 9 сезон

Все сериалы

все сериалы на PB.wtf

RePack

FAR CRY 5

Anonymous, доброе утро, мы катастрофически не успеваем собрать деньги на оплату серверов, помогите нам пожалуйста 5,10,15р., для нас важна любая помощь . В качестве благодарности мы отключим Вам всю рекламу на сайте (укажите свой ник в строку Ваше имя)!

×
  
Magnet ссылка

Американская история ужасов: Культ / American Horror Story: Cult / Сезон 7 / Серии 1-11 из 11 (Брэдли Букер, Майкл Аппендаль) [2017, Ужасы, фэнтези, триллер, драма, WEBRip 1080p] MVO [BaibaKo] piratbit.org

Американская история ужасов: Культ через торрент piratbit.org

Размер: 35.67 GB | Добавлен: 4 года назад | Торрент скачан:22 раза
Смотреть онлайн Американская история ужасов: Культ | Скачать    Ребята, помогите собрать деньги на оплату серверов!!!

10-09-2017 12:32 Американская история ужасов: Культ Скачать торрент  

✦ ✦ ✦ Американская история ужасов: Культ / American Horror Story: Cult ✦ ✦ ✦
Год выпуска: 2017
Страна: США
Жанр: Ужасы, фэнтези, триллер, драма
Продолжительность: 11 ~ 00:55:00
Перевод: Профессиональный многоголосый -
Субтитры: отсутствуют

Режиссер: Брэдли Букер, Майкл Аппендаль, Альфонсо Гомез-Рейон

rating

В ролях:

Сара Полсон, Эван Питерс, Шайенн Джексон, Билли Лурд, Элисон Пилл, Колтон Хейнс, Билли Айкнер, Лесли Гроссман, Адина Портер, Лина Данэм, Эмма Робертс, Фрэнсис Конрой, Мэр Уиннингхэм, Чез Боно

Описание:

Сюжет нового седьмого сезона сериала, вышедший под названием «Культ», начинается с показа отрывков из президентской кампании Дональда Трампа и Хиллари Клинтон. Герои серии с ужасом наблюдают за тем, как Дональд Трамп объявлен президентом Соединенных Штатов...

Качество: WEBRip 1080p
Формат: MKV
Видео кодек: H.264
Аудио кодек: AC3

Видео: MPEG-4 AVC, ~ 8627 Кбит/с, 1920x1080, 23,976 fps
Аудио#1: RU: AC3, 6 ch, 640 Кбит/с
Аудио#2: EN: AC3, 6 ch, 640 Кбит/с


скриншот   скриншот   скриншот   скриншот   скриншот  

скриншот   скриншот   скриншот   скриншот   скриншот  

Общее
Уникальный идентификатор : 196337016950815404196227829998954407633 (0x93B5224EB931A9F68053519348EAE6D1)
Полное имя : D:\American.Horror.Story.s07.HD1080p.WEBRip.Rus.Eng.BaibaKo.tv\American.Horror.Story.s07e01.HD1080p.WEBRip.Rus.Eng.BaibaKo.tv.mkv
Формат : Matroska
Версия формата : Version 4 / Version 2
Размер файла : 3,53 Гбайт
Продолжительность : 51 м. 2 с.
Общий поток : 9909 Кбит/сек
Дата кодирования : UTC 2017-09-06 20:43:18
Программа кодирования : mkvmerge v8.5.2 ('Crosses') 64bit
Библиотека кодирования : libebml v1.3.3 + libmatroska v1.4.4

Видео
Идентификатор : 1
Формат : AVC
Формат/Информация : Advanced Video Codec
Профиль формата : High@L4
Параметр CABAC формата : Да
Параметр ReFrames формата : 4 кадра
Идентификатор кодека : V_MPEG4/ISO/AVC
Продолжительность : 51 м. 2 с.
Битрейт : 8627 Кбит/сек
Ширина : 1920 пикселей
Высота : 1080 пикселей
Соотношение сторон : 16:9
Режим частоты кадров : Постоянный
Частота кадров : 23,976 (24000/1001) кадра/сек
Цветовое пространство : YUV
Субдискретизация насыщенности : 4:2:0
Битовая глубина : 8 бит
Тип развёртки : Прогрессивная
Бит/(Пиксели*Кадры) : 0.174
Размер потока : 3,08 Гбайт (87%)
Библиотека кодирования : x264 core 152 r2851 ba24899
Настройки программы : cabac=1 / ref=3 / deblock=1:0:0 / analyse=0x3:0x113 / me=hex / subme=7 / psy=1 / psy_rd=1.00:0.00 / mixed_ref=1 / me_range=16 / chroma_me=1 / trellis=1 / 8x8dct=1 / cqm=0 / deadzone=21,11 / fast_pskip=1 / chroma_qp_offset=-2 / threads=12 / lookahead_threads=2 / sliced_threads=0 / nr=0 / decimate=1 / interlaced=0 / bluray_compat=0 / constrained_intra=0 / bframes=3 / b_pyramid=2 / b_adapt=1 / b_bias=0 / direct=1 / weightb=1 / open_gop=0 / weightp=2 / keyint=240 / keyint_min=23 / scenecut=40 / intra_refresh=0 / rc_lookahead=40 / rc=crf / mbtree=1 / crf=18.0 / qcomp=0.60 / qpmin=0 / qpmax=69 / qpstep=4 / ip_ratio=1.40 / aq=1:1.00
Default : Нет
Forced : Нет

Аудио #1
Идентификатор : 2
Формат : AC-3
Формат/Информация : Audio Coding 3
Расширение режима : CM (complete main)
Параметр Endianness формата : Big
Идентификатор кодека : A_AC3
Продолжительность : 51 м. 2 с.
Вид битрейта : Постоянный
Битрейт : 640 Кбит/сек
Каналы : 6 каналов
Расположение каналов : Front: L C R, Side: L R, LFE
Частота : 48,0 КГц
Частота кадров : 31,250 кадров/сек (1536 spf)
Метод сжатия : С потерями
Размер потока : 234 Мбайт (6%)
Язык : Russian
Default : Да
Forced : Нет

Аудио #2
Идентификатор : 3
Формат : AC-3
Формат/Информация : Audio Coding 3
Расширение режима : CM (complete main)
Параметр Endianness формата : Big
Идентификатор кодека : A_AC3
Продолжительность : 51 м. 2 с.
Вид битрейта : Постоянный
Битрейт : 640 Кбит/сек
Каналы : 6 каналов
Расположение каналов : Front: L C R, Side: L R, LFE
Частота : 48,0 КГц
Частота кадров : 31,250 кадров/сек (1536 spf)
Метод сжатия : С потерями
Размер потока : 234 Мбайт (6%)
Язык : English
Default : Нет
Forced : Нет

Когда раздача ведётся путём добавления новых серий, при каждом добавлении создётся новый торрент. Чтобы начать докачку новой серии, пользователям необходимо сделать следующее:
(1) остановить скачивание,
(2) удалить старый торрент у себя из клиента (старые серии удалять не надо),
(3) скачать новый торрент и запустить его у себя в клиенте вместо старого, при этом указать клиенту путь в старую папку, куда и должно происходить скачивание новых серий.
Ваш клиент при этом должен произвести хеширование (проверку) старой папки (если не производит сам - помогите ему сделать это), и будет докачивать только те серии, которых у вас ещё нет. Старые серии при этом не удаляются, а продолжают раздаваться!
Eсли вы уже удалили старые серии, то предотвратить повторную закачку старых серий можно, отжав галочку в соответсвующих местах при запуске нового торрента. По возможности, желательно не удалять старые серии как можно дольше, чтобы релизёр не столько продолжал раздавать старые серии, а смог сконцентрироваться на новых.
piratbit.org



Скачать Американская история ужасов: Культ через торрент http://i89.fastpic.ru/big/2017/0910/93/7a32354f9ec0978a797bc43e44230f93.jpg Скачать, смотреть онлайн Американская история ужасов: Культ бесплантно в хорошем качестве Описание: Сюжет нового седьмого сезона сериала, вышедший под названием «Культ», начинается с показа отрывков из президентской кампании ... 10 10 10
Info! Золотая раздача, скачанное не засчитывается.
Торрент: Зарегистрирован [2017-11-21 18:15] · скачан: 22 раз
Статус: √ проверено
Размер: 35.67 GB
Как cкачать? Как скачать Американская история ужасов: Культ через торрент | UTorrent

% Раздел Тема Автор DL S | L
Американская история ужасов [ 35.21 GB ] Американская история ужасов: Культ / American Horror Story: Cult / Сезон 7 / Серии 1-11 из 11 [2017 WEB-DL 1080p] MVO [Novamedia] bober100 Скачать
1 | 0
Американская история ужасов [ 7.06 GB ] Американская история ужасов: Культ / American Horror Story: Cult / Сезон 7 / Серии 1-11 из 11 [2017 WEB-DLRip] MVO [Novamedia] bober100 Скачать
1 | 0
Американская история ужасов [ 18.71 GB ] Американская история ужасов: Культ / American Horror Story: Cult / Сезон 7 / Серии 1-11 из 11 [2017 WEBRip 720p] MVO [BaibaKo] bober100 Скачать
1 | 0

28-11-2019 20:33  

Отключить всю рекламу на сайте

    Дорогой пользователь! Огромная просьба, поблагодарите релизера, оцените раздачу и оставьте свои комментарий, если Вы скачали Американская история ужасов: Культ через торрент бесплатно!
    Комментировать посты могут только пользователи прошедшие не сложную регистрацию
    Показать сообщения:    

    Американская история ужасов: Культ через торрент
    Скачать бесплатно Американская история ужасов: Культ
    Американская история ужасов: Культ скачать торрент
    Американская история ужасов: Культ смотреть онлайн
    Cкачать фильм Американская история ужасов: Культ бесплатно
    Американская история ужасов: Культ скачать торрент в хорошем качестве
    Американская история ужасов: Культ смотреть онлайн бесплатно в хорошем качестве


    Вы не можете начинать темы
    Вы не можете отвечать на сообщения
    Вы не можете редактировать свои сообщения
    Вы не можете удалять свои сообщения
    Вы не можете голосовать в опросах
    Вы не можете прикреплять файлы к сообщениям
    Вы можете скачивать файлы