Присоединяйтесь к нам в Telegram!, здесь всегда актуальный адрес сайта, оперативная поддержка и многое другое!!

>

5.9

iTunes

7.4

iTunes

9.4

1 сезон

1

7.4

2 сезон

7.2

iTunes

7.3

1 сезон

13

6.1

iTunes

8.3

Пиратка

30

ULTIMATE

pack

9.9

Лицензия

ВАЖНО

ИГРА 18+

pack

7.3

RePack

MK11

7.7

RePack

jed

7.8

RePack

fifa19

8.5

RePack

RDR2

RePack

NEED FOR SPEED™ PAYBACK

5 сезон

9 сезон

Бесстыжие 9 сезон

Все сериалы

все сериалы на PB.wtf

RePack

FAR CRY 5

Anonymous, доброй ночи, мы катастрофически не успеваем собрать деньги на оплату серверов, помогите нам пожалуйста 5,10,15р., для нас важна любая помощь . В качестве благодарности мы отключим Вам всю рекламу на сайте (укажите свой ник в строку Ваше имя)!

×
  
Magnet ссылка

Американская история ужасов / American Horror Story / Сезон: 6 / Серии 10 из 10 (Брэдли Букер, Майкл Аппендаль, Альфонсо Гомез-Рейон, Майкл Леманн) [2016 г., ужасы, фантастика, триллер, драма, детектив, WEB-DLRip] MVO LostFilm piratbit.org

Американская история ужасов через торрент piratbit.org

Размер: 3.96 GB | Добавлен: 5 лет назад | Торрент скачан:321 раз
Смотреть онлайн Американская история ужасов | Скачать    Ребята, помогите собрать деньги на оплату серверов!!!

18-09-2016 07:39 Американская история ужасов Скачать торрент  

Американская история ужасов / American Horror Story Год выпуска: 2016
Страна: США
Жанр: Ужасы, фэнтези, триллер, драма
Продолжительность: ~00:40:00
Перевод: Профессиональный (многоголосый, закадровый)

Режиссер: Брэдли Букер, Майкл Аппендаль, Альфонсо Гомез-Рейон, Майкл Леманн

rating

В ролях: Сара Полсон, Анджела Бассетт, Куба Гудинг-мл., Эван Питерс, Денис О'Харе, Кэти Бэйтс, Финн Уиттрок, Уэс Бентли, Мэтт Бомер, Леди Гага, Шайенн Джексон, Лесли Джордан, Лили Рэйб, Адина Портер, Андрэ Холланд

Описание: Сюжет нового сезона сериала строится на 2 временных линиях – в настоящем и американском прошлом эпохи колонизации. Одним из событий, задействованных в сериале, является таинственное исчезновение колонистов, пропавших на острове Кроатоан в конце 16 века.

Качество: WEB-DLRip
Формат: AVI
Видео кодек: XviD
Аудио кодек: MP3
Видео: 720x400 , 23.976 fps, ~980 Кбит/сек , 0.20 bit/pixel
Аудио#1: mp3, 2 ch,192 kbps, 48.0 KHz




General
Complete name : D:\Загрузка\Torrent\Американсая история ужасов (6 сезон) - LostFilm.TV\S06E01.Глава 1.avi
Format : AVI
Format/Info : Audio Video Interleave
File size : 362 MiB
Duration : 42 min
Overall bit rate mode : Variable
Overall bit rate : 1 180 kb/s
Writing application : Nandub v1.0rc2
Writing library : Nandub build 1853/release

Video
ID : 0
Format : MPEG-4 Visual
Format profile : Advanced Simple@L5
Format settings, BVOP : No
Format settings, QPel : No
Format settings, GMC : No warppoints
Format settings, Matrix : Default (H.263)
Codec ID : XVID
Codec ID/Hint : XviD
Duration : 42 min
Bit rate : 980 kb/s
Width : 720 pixels
Height : 400 pixels
Display aspect ratio : 16:9
Frame rate : 23.976 (23976/1000) FPS
Color space : YUV
Chroma subsampling : 4:2:0
Bit depth : 8 bits
Scan type : Progressive
Compression mode : Lossy
Bits/(Pixel*Frame) : 0.142
Stream size : 301 MiB (83%)
Writing library : XviD 1.2.1 (UTC 2008-12-04)

Audio
ID : 1
Format : MPEG Audio
Format version : Version 1
Format profile : Layer 3
Mode : Joint stereo
Mode extension : MS Stereo
Codec ID : 55
Codec ID/Hint : MP3
Duration : 42 min
Bit rate mode : Variable
Bit rate : 192 kb/s
Channel(s) : 2 channels
Sampling rate : 48.0 kHz
Compression mode : Lossy
Stream size : 57.5 MiB (16%)
Alignment : Aligned on interleaves
Interleave, duration : 24 ms (0.58 video frame)
Interleave, preload duratio : 438 ms
Writing library : LAME3.97b
Encoding settings : -m j -V 4 -q 3 -lowpass 18.6 --abr 192

  • Остановить скачивание
  • Удалить старый торрент у себя из клиента (старые серии удалять не надо)
  • Скачать новый торрент и запустить его у себя в клиенте вместо старого, при этом указать клиенту путь в старую папку куда и должно происходить скачивание новых серий.

    Ваш клиент при этом должен произвести хеширование (проверку) старой папки (если не производит сам - помогите ему сделать это), и будет докачивать только те серии которых у вас ещё нет. Старые серии при этом не удаляются, а продолжают раздаваться!

    Eсли вы уже удалили старые серии, то предотвратить повторную закачку старых серий можно, отжав галочку в соответсвующих местах при запуске нового торрента. По возможности, желательно не удалять старые серии как можно дольше чтобы релизёр не столько продолжал раздавать старые серии, а смог сконцентрироваться на новых.
  • Оформление:Alex_EДобавлена 10 финальная серия (20.11.2016)Просьба перекачать торрентСериал официально продлен на 7 сезон piratbit.org



    Скачать Американская история ужасов через торрент https://pic1.kartinco.top/images/10/i18wh.jpg Скачать, смотреть онлайн Американская история ужасов бесплантно в хорошем качестве Описание: Сюжет нового сезона сериала строится на 2 временных линиях – в настоящем и американском прошлом эпохи колонизации. Одним из ... 10 10 27
    Торрент: Зарегистрирован [2016-11-20 09:14] · скачан: 321 раз
    Статус: √ проверено
    Размер: 3.96 GB
    Как cкачать? Как скачать Американская история ужасов через торрент | UTorrent



    Последний раз редактировалось: Alex_E (2016-11-21 19:12), всего редактировалось 11 раз(а)

    28-11-2019 20:33  

    Отключить всю рекламу на сайте

    18-09-2016 11:20 Американская история ужасов Скачать торрент  

    Ну как СЕЗОНЧИК?piratbit.org



    18-09-2016 14:59 Американская история ужасов Скачать торрент  

    Пятый был редкостным Г надеюсь этот будет получше.piratbit.org



    21-09-2016 11:55 Американская история ужасов Скачать торрент  

    Круто! ) Спасибо.piratbit.org



    20-11-2016 10:25 Американская история ужасов Скачать торрент  

    Туповатый сезончик, ребята сели в лужу)))).Скорее всего на нем всё закончится(((, скорей бы...piratbit.org



    20-11-2016 23:53 Американская история ужасов Скачать торрент  

    kw1982 писал(а):

    Туповатый сезончик, ребята сели в лужу)))).Скорее всего на нем всё закончится(((, скорей бы...

    Первая часть сезона была нормальная. А вот как только они начали снимать ток шоу начался бред.piratbit.org



      Дорогой пользователь! Огромная просьба, поблагодарите релизера, оцените раздачу и оставьте свои комментарий, если Вы скачали Американская история ужасов через торрент бесплатно!
      Комментировать посты могут только пользователи прошедшие не сложную регистрацию
      Показать сообщения:    

      Американская история ужасов через торрент
      Скачать бесплатно Американская история ужасов
      Американская история ужасов скачать торрент
      Американская история ужасов смотреть онлайн
      Cкачать фильм Американская история ужасов бесплатно
      Американская история ужасов скачать торрент в хорошем качестве
      Американская история ужасов смотреть онлайн бесплатно в хорошем качестве


      Вы не можете начинать темы
      Вы не можете отвечать на сообщения
      Вы не можете редактировать свои сообщения
      Вы не можете удалять свои сообщения
      Вы не можете голосовать в опросах
      Вы не можете прикреплять файлы к сообщениям
      Вы можете скачивать файлы