Присоединяйтесь к нам в Telegram!, здесь всегда актуальный адрес сайта, оперативная поддержка и многое другое!!

>

5.9

iTunes

7.4

iTunes

9.4

1 сезон

1

7.4

2 сезон

7.2

iTunes

7.3

1 сезон

13

6.1

iTunes

8.3

GOG

30

ULTIMATE

pack

9.9

Лицензия

ВАЖНО

ИГРА 18+

pack

7.3

RePack

MK11

7.7

RePack

jed

7.8

RePack

fifa19

8.5

RePack

RDR2

RePack

NEED FOR SPEED™ PAYBACK

5 сезон

9 сезон

Бесстыжие 9 сезон

Все сериалы

все сериалы на PB.wtf

RePack

FAR CRY 5

Anonymous, добрый день, мы катастрофически не успеваем собрать деньги на оплату серверов, помогите нам пожалуйста 5,10,15р., для нас важна любая помощь . В качестве благодарности мы отключим Вам всю рекламу на сайте (укажите свой ник в строку Ваше имя)!

×
  
Magnet ссылка

Американская история ужасов / American Horror Story / Сезон: 8 / Серии: 1-10 из 10 (Брэдли Букер, Лиза Джонсон и др.) [2018, Ужасы, фэнтези, триллер, драма, WEB-DL 1080p] MVO [BaibaKo] piratbit.org

Американская история ужасов через торрент piratbit.org

Размер: 23.56 GB | Добавлен: 3 года назад | Торрент скачан:28 раз
Смотреть онлайн Американская история ужасов | Скачать    Ребята, помогите собрать деньги на оплату серверов!!!

17-11-2018 06:04 Американская история ужасов Скачать торрент  

Американская история ужасов / American Horror Story
Год выпуска: 2018
Страна: США
Жанр: Ужасы, фэнтези, триллер, драма
Продолжительность: ~ 00:50:00
Перевод: Профессиональный (многоголосый) |
Субтитры: отсутствуют

Режиссер: Брэдли Букер, Лиза Джонсон, Гвинет Хордер-Пейтон, Мэгги Кили, Рейчел Голдберг, Анджела Бассетт

rating

В ролях:

Брэдли Букер, Лиза Джонсон, Гвинет Хордер-Пейтон, Мэгги Кили, Рейчел Голдберг, Анджела Бассетт
В главных ролях: Cара Полсон, Эван Питерс, Шайенн Джексон, Билли Лурд, Элисон Пилл, Колтон Хейнс, Билли Айкнер, Лесли Гроссман, Адина Портер, Лина Данэм, Эмма Робертс, Фрэнсис Конрой, Мэр Уиннингхэм, Чез Боно

Описание:

8-я часть проекта будет кроссовером 1-го и 3-го сезонов: «Дом-убийца» и «Шабаш». Предполагается, что неродившийся ребенок, показанный в первом тизере «Апокалипсиса», — это Майкл Лэнгдон, дитя Тейта Лэнгдона и изнасилованной им Вивьен Хармон из «Дома-убийцы». Сюжет этого сезона будет разворачиваться вокруг ядерного апокалипсиса.

Качество: WEB-DL 1080p
Формат: MKV

Видео: MPEG-4 AVC, ~ 7 300 Кбит/с, 1920x1080
Аудио#1: Русский (AC3, 6 ch, 640 Кбит/с)
Аудио#2: английский (AC3, 6 ch, 640 Кбит/с)
скриншот  скриншот  скриншот  

Общее
Уникальный идентификатор : 243358622391322208907340562421623901921 (0xB7152A727282DC81B497663D20094EE1)
Полное имя : D:\American.Horror.Story.s08.HD1080p.WEB-DL.Rus.Eng.BaibaKo.tv\American.Horror.Story.s08e01.HD1080p.WEB-DL.Rus.Eng.BaibaKo.tv.mkv
Формат : Matroska
Версия формата : Version 4 / Version 2
Размер файла : 2,67 Гбайт
Продолжительность : 44 м. 58 с.
Общий поток : 8489 Кбит/сек
Дата кодирования : UTC 2018-09-13 09:28:14
Программа кодирования : mkvmerge v9.4.0 ('Knurl') 64bit
Библиотека кодирования : libebml v1.3.4 + libmatroska v1.4.5

Видео
Идентификатор : 1
Формат : AVC
Формат/Информация : Advanced Video Codec
Профиль формата : High@L4
Параметр CABAC формата : Да
Параметр RefFrames формата : 4 кадра
Идентификатор кодека : V_MPEG4/ISO/AVC
Продолжительность : 44 м. 58 с.
Битрейт : 7207 Кбит/сек
Ширина : 1920 пикселей
Высота : 1080 пикселей
Соотношение сторон : 16:9
Режим частоты кадров : Постоянный
Частота кадров : 23,976 (24000/1001) кадра/сек
Цветовое пространство : YUV
Субдискретизация насыщенности : 4:2:0
Битовая глубина : 8 бит
Тип развёртки : Прогрессивная
Бит/(Пиксели*Кадры) : 0.145
Размер потока : 2,26 Гбайт (85%)
Библиотека кодирования : x264 core 152 r2851 ba24899
Настройки программы : cabac=1 / ref=3 / deblock=1:0:0 / analyse=0x3:0x113 / me=hex / subme=7 / psy=1 / psy_rd=1.00:0.00 / mixed_ref=1 / me_range=16 / chroma_me=1 / trellis=1 / 8x8dct=1 / cqm=0 / deadzone=21,11 / fast_pskip=1 / chroma_qp_offset=-2 / threads=30 / lookahead_threads=5 / sliced_threads=0 / nr=0 / decimate=1 / interlaced=0 / bluray_compat=0 / constrained_intra=0 / bframes=3 / b_pyramid=2 / b_adapt=1 / b_bias=0 / direct=1 / weightb=1 / open_gop=0 / weightp=2 / keyint=240 / keyint_min=23 / scenecut=40 / intra_refresh=0 / rc_lookahead=40 / rc=crf / mbtree=1 / crf=18.0 / qcomp=0.60 / qpmin=0 / qpmax=69 / qpstep=4 / ip_ratio=1.40 / aq=1:1.00
Default : Нет
Forced : Нет

Аудио #1
Идентификатор : 2
Формат : AC-3
Формат/Информация : Audio Coding 3
Расширение режима : CM (complete main)
Параметр Endianness формата : Big
Идентификатор кодека : A_AC3
Продолжительность : 44 м. 58 с.
Вид битрейта : Постоянный
Битрейт : 640 Кбит/сек
Каналы : 6 каналов
Расположение каналов : Front: L C R, Side: L R, LFE
Частота : 48,0 КГц
Частота кадров : 31,250 кадров/сек (1536 spf)
Метод сжатия : С потерями
Размер потока : 206 Мбайт (8%)
Язык : Russian
Default : Да
Forced : Нет

Аудио #2
Идентификатор : 3
Формат : AC-3
Формат/Информация : Audio Coding 3
Расширение режима : CM (complete main)
Параметр Endianness формата : Big
Идентификатор кодека : A_AC3
Продолжительность : 44 м. 58 с.
Вид битрейта : Постоянный
Битрейт : 640 Кбит/сек
Каналы : 6 каналов
Расположение каналов : Front: L C R, Side: L R, LFE
Частота : 48,0 КГц
Частота кадров : 31,250 кадров/сек (1536 spf)
Метод сжатия : С потерями
Размер потока : 206 Мбайт (8%)
Язык : English
Default : Нет
Forced : Нет

piratbit.org



Скачать Американская история ужасов через торрент http://i106.fastpic.ru/big/2018/1117/0d/4f47f9b63075321ef9d379b1eea7100d.jpg Скачать, смотреть онлайн Американская история ужасов бесплантно в хорошем качестве Описание: 8-я часть проекта будет кроссовером 1-го и 3-го сезонов: «Дом-убийца» и «Шабаш». Предполагается, что неродившийся ребенок, ... 10 10 3
Торрент: Зарегистрирован [2018-11-17 06:04] · скачан: 28 раз
Статус: √ проверено
Размер: 23.56 GB
Как cкачать? Как скачать Американская история ужасов через торрент | UTorrent

% Раздел Тема Автор DL S | L
Американская история ужасов [ 5.77 GB ] Американская история ужасов / American Horror Story / Сезон: 8 / Серии: 1-10 из 10 [2018 WEB-DLRip] MVO [LostFilm] bober100 Скачать
1 | 0
Американская история ужасов [ 22.58 GB ] Американская история ужасов / American Horror Story / Сезон: 8 / Серии: 1-10 из 10 [2018 WEB-DL 1080p] MVO [LostFilm] bober100 Скачать
1 | 0
Американская история ужасов [ 21.81 GB ] Американская история ужасов / American Horror Story / Сезон: 8 / Серии: 1-10 из 10 [2018 WEB-DL 1080p] MVO [Amedia] bober100 Скачать
1 | 0
Американская история ужасов [ 13.44 GB ] Американская история ужасов / American Horror Story / Сезон: 8 / Серии: 1-10 из 10 [2018 WEB-DL 720p] MVO [BaibaKo] bober100 Скачать
1 | 0
Американская история ужасов [ 4.98 GB ] Американская история ужасов / American Horror Story / Сезон: 8 / Серии: 1-10 из 10 [2018 WEB-DLRip] MVO [Jaskier] bober100 Скачать
1 | 0
Американская история ужасов [ 5.38 GB ] Американская история ужасов / American Horror Story / Сезон: 8 / Серии: 1-10 из 10 [2018 WEB-DL 720p] MVO [Amedia] bober100 Скачать
1 | 0
Американская история ужасов [ 6.73 GB ] Американская история ужасов / American Horror Story / Сезон: 8 / Серии: 1-10 из 10 [2018 жасы WEB-DL 720p] MVO [Jaskier] bober100 Скачать
1 | 0

28-11-2019 20:33  

Отключить всю рекламу на сайте

    Дорогой пользователь! Огромная просьба, поблагодарите релизера, оцените раздачу и оставьте свои комментарий, если Вы скачали Американская история ужасов через торрент бесплатно!
    Комментировать посты могут только пользователи прошедшие не сложную регистрацию
    Показать сообщения:    

    Американская история ужасов через торрент
    Скачать бесплатно Американская история ужасов
    Американская история ужасов скачать торрент
    Американская история ужасов смотреть онлайн
    Cкачать фильм Американская история ужасов бесплатно
    Американская история ужасов скачать торрент в хорошем качестве
    Американская история ужасов смотреть онлайн бесплатно в хорошем качестве


    Вы не можете начинать темы
    Вы не можете отвечать на сообщения
    Вы не можете редактировать свои сообщения
    Вы не можете удалять свои сообщения
    Вы не можете голосовать в опросах
    Вы не можете прикреплять файлы к сообщениям
    Вы можете скачивать файлы