Присоединяйтесь к нам в Telegram!, здесь всегда актуальный адрес сайта, оперативная поддержка и многое другое!!

>

5.9

iTunes

7.4

iTunes

9.4

1 сезон

1

7.4

2 сезон

7.2

iTunes

7.3

iTunes

13

6.1

iTunes

8.3

Пиратка

30

ULTIMATE

pack

9.9

Лицензия

ВАЖНО

ИГРА 18+

pack

7.3

RePack

MK11

7.7

RePack

jed

7.8

RePack

fifa19

8.5

RePack

RDR2

RePack

NEED FOR SPEED™ PAYBACK

5 сезон

9 сезон

Бесстыжие 9 сезон

Все сериалы

все сериалы на PB.wtf

RePack

FAR CRY 5

Anonymous, добрый вечер, мы катастрофически не успеваем собрать деньги на оплату серверов, помогите нам пожалуйста 5,10,15р., для нас важна любая помощь . В качестве благодарности мы отключим Вам всю рекламу на сайте (укажите свой ник в строку Ваше имя)!

×
  
Magnet ссылка

Американская история ужасов: Фрик-шоу / American Horror Story: Freak Show / Сезон: 4 / Серии 1-7 из 13 (Брэдли Букер) [2014 г., Ужасы, драма, WEB-DLRip] Профессиональный (многоголосый, закадровый) - Amedia piratbit.org

Американская история ужасов: Фрик-шоу через торрент piratbit.org

Размер: 4.59 GB | Добавлен: 7 лет назад | Торрент скачан:118 раз
Смотреть онлайн Американская история ужасов: Фрик-шоу | Скачать    Ребята, помогите собрать деньги на оплату серверов!!!

20-11-2014 22:30 Американская история ужасов: Фрик-шоу Скачать торрент  

Американская история ужасов: Фрик-шоу / American Horror Story: Freak Show Год выпуска: 2014
Выпущено:: США, Brad Falchuk Teley-Vision, Ryan Murphy Productions, 20th Century Fox Television
Жанр: Ужасы, фэнтези, триллер, драма
Длительность: 01:05:03 (Серия)
Перевод: Профессиональный (многоголосый, закадровый) Новамедиа по заказу Amedia

Режиссер: Брэдли Букер, Майкл Аппендаль, Альфонсо Гомез-Рейон, Майкл Леманн

В ролях:

Эван Питерс (Jimmy Darling), Джессика Лэнг (Elsa Mars), Фрэнсис Конрой (Gloria Mott), Сара Полсон (Bette Tattler), Дэнис О’Хэйр (Spalding), Лили Рэйб (Misty Day), Эмма Робертс (Madison Montgomery), Кэти Бейтс (Ethel Darling), Таисса Фармига (Zoe Benson), Анджела Бассетт (Desiree Dupree), Габури Сидибе (Queenie), Закари Куинто (Dr. Oliver Thredson)

Описание:
Полное собрание национальных кошмаров. Мы уже видели дом с привидениями, больницу для душевнобольных преступников и ведьмовский шабаш. Настал черед цирка уродов. Флорида, 1950-е. Управляющая последним паноптикумом в стране собирается закрыть свое шоу. Но артисты-фрики не рады досрочной пенсии. Они сделают что угодно, чтобы жуткий цирк продолжал существовать.

Рейтинг:


Качество: HDTVRip
Формат: AVI
Видео кодек: XviD
Аудио кодек: AC3
Видео: 720x400 (16:9), 1500 kbps, 23,976 fps, 0,222 bpp
Аудио#1: русский / 2.0 / 48 kHz / 192 kbps
Аудио#2: английский / 2.0 / 48 kHz / 192 kbps
Субтитры:Русские, Английские
Внимание! Раздача ведётся путём добавления новых серий; при каждом добавлении создаётся новый торрент. Чтобы начать докачку новой серии, пользователям необходимо сделать следующее:
(1) остановить скачивание,
(2) удалить старый торрент у себя из клиента (старые серии удалять не надо),
(3) скачать новый торрент и запустить его у себя в клиенте вместо старого, при этом указать клиенту путь в старую папку куда и должно происходить скачивание новых серий.
Ваш клиент при этом должен произвести хеширование (проверку) старой папки (если не производит сам - помогите ему сделать это), и будет докачивать только те серии которых у вас ещё нет. Старые серии при этом не удаляются, а продолжают раздаваться!
Eсли вы уже удалили старые серии, то предотвратить повторную закачку старых серий можно, отжав галочку в соответсвующих местах при запуске нового торрента. По возможности, желательно не удалять старые серии как можно дольше чтобы релизёр не столько продолжал раздавать старые серии, а смог сконцентрироваться на новых.







Общее
Полное имя : D:\uTorrent\American Horror Story (S04) Amedia\American.Horror.Story.s04e07.XviD.Amedia.[qqss44].avi
Формат : AVI
Формат/Информация : Audio Video Interleave
Размер файла : 600 Мбайт
Продолжительность : 45 м.
Общий поток : 1855 Кбит/сек
Программа кодирования : VirtualDubMod 1.5.10.3 | www.virtualdub-fr.org || (build 2550/release)
Библиотека кодирования : VirtualDubMod build 2550/release

Видео
Идентификатор : 0
Формат : MPEG-4 Visual
Профиль формата : Advanced Simple@L5
Параметр BVOP формата : 2
Параметр QPel формата : Нет
Параметр GMC формата : Без точки перехода
Параметр матрицы формата : Default (MPEG)
Идентификатор кодека : XVID
Идентификатор кодека/Подсказка : XviD
Продолжительность : 45 м.
Битрейт : 1457 Кбит/сек
Ширина : 720 пикселей
Высота : 400 пикселей
Соотношение сторон : 16:9
Частота кадров : 23,976 кадра/сек
Цветовое пространство : YUV
Субдискретизация насыщенности : 4:2:0
Битовая глубина : 8 бит
Тип развёртки : Прогрессивная
Метод сжатия : С потерями
Бит/(Пиксели*Кадры) : 0.211
Размер потока : 471 Мбайт (79%)
Библиотека кодирования : XviD 73

Аудио #1
Идентификатор : 1
Формат : AC-3
Формат/Информация : Audio Coding 3
Расширение режима : CM (complete main)
Параметр Endianness формата : Big
Идентификатор кодека : 2000
Продолжительность : 45 м.
Вид битрейта : Постоянный
Битрейт : 192 Кбит/сек
Каналы : 2 канала
Расположение каналов : Front: L R
Частота : 48,0 КГц
Битовая глубина : 16 бит
Метод сжатия : С потерями
Размер потока : 62,1 Мбайт (10%)
Выравнивание : Разделение по промежуткам
Продолжительность промежутка : 42 мс. (1,00 видеокадр)
Время предзагрузки промежутка : 500 мс.

Аудио #2
Идентификатор : 2
Формат : AC-3
Формат/Информация : Audio Coding 3
Расширение режима : CM (complete main)
Параметр Endianness формата : Big
Идентификатор кодека : 2000
Продолжительность : 45 м.
Вид битрейта : Постоянный
Битрейт : 192 Кбит/сек
Каналы : 2 канала
Расположение каналов : Front: L R
Частота : 48,0 КГц
Битовая глубина : 16 бит
Метод сжатия : С потерями
Размер потока : 62,1 Мбайт (10%)
Выравнивание : Разделение по промежуткам
Продолжительность промежутка : 42 мс. (1,00 видеокадр)
Время предзагрузки промежутка : 500 мс.

piratbit.org



Скачать Американская история ужасов: Фрик-шоу через торрент http://i63.fastpic.ru/big/2014/1009/89/5e5267c5621bb3bece63333557652e89.png Скачать, смотреть онлайн Американская история ужасов: Фрик-шоу бесплантно в хорошем качестве Описание: Полное собрание национальных кошмаров. Мы уже видели дом с привидениями, больницу для душевнобольных преступников и ведьмовский ... 9 10 4
Торрент: Зарегистрирован [2014-11-20 22:30] · скачан: 118 раз
Статус: √ проверено
Размер: 4.59 GB
Как cкачать? Как скачать Американская история ужасов: Фрик-шоу через торрент | UTorrent



Последний раз редактировалось: _Fenixx_ни мужик ни баба (2014-11-21 08:03), всего редактировалось 2 раз(а)

28-11-2019 20:33  

Отключить всю рекламу на сайте

20-11-2014 22:39 Американская история ужасов: Фрик-шоу Скачать торрент  

Ну как вам? Оперативно?piratbit.org



21-11-2014 00:01 Американская история ужасов: Фрик-шоу Скачать торрент  

Сэмпл должен быть сделан с раздаваемого материала, у вас же он с 720p рипа.

_Fenixx_ писал(а):

Качество: HDTVRip

Скриншоты
1) не с этого сезона
2) не с данного качества

Об исправлении сообщите в лс со ссылкой на раздачу.piratbit.org



    Дорогой пользователь! Огромная просьба, поблагодарите релизера, оцените раздачу и оставьте свои комментарий, если Вы скачали Американская история ужасов: Фрик-шоу через торрент бесплатно!
    Комментировать посты могут только пользователи прошедшие не сложную регистрацию
    Показать сообщения:    

    Американская история ужасов: Фрик-шоу через торрент
    Скачать бесплатно Американская история ужасов: Фрик-шоу
    Американская история ужасов: Фрик-шоу скачать торрент
    Американская история ужасов: Фрик-шоу смотреть онлайн
    Cкачать фильм Американская история ужасов: Фрик-шоу бесплатно
    Американская история ужасов: Фрик-шоу скачать торрент в хорошем качестве
    Американская история ужасов: Фрик-шоу смотреть онлайн бесплатно в хорошем качестве


    Вы не можете начинать темы
    Вы не можете отвечать на сообщения
    Вы не можете редактировать свои сообщения
    Вы не можете удалять свои сообщения
    Вы не можете голосовать в опросах
    Вы не можете прикреплять файлы к сообщениям
    Вы можете скачивать файлы