Присоединяйтесь к нам в Telegram!, здесь всегда актуальный адрес сайта, оперативная поддержка и многое другое!!

>

5.9

iTunes

7.4

iTunes

9.4

1 сезон

1

7.4

2 сезон

7.2

iTunes

7.3

1 сезон

13

6.1

iTunes

8.3

GOG

30

ULTIMATE

pack

9.9

Лицензия

ВАЖНО

ИГРА 18+

pack

7.3

RePack

MK11

7.7

RePack

jed

7.8

RePack

fifa19

8.5

RePack

RDR2

RePack

NEED FOR SPEED™ PAYBACK

5 сезон

9 сезон

Бесстыжие 9 сезон

Все сериалы

все сериалы на PB.wtf

RePack

FAR CRY 5

Anonymous, доброй ночи, мы катастрофически не успеваем собрать деньги на оплату серверов, помогите нам пожалуйста 5,10,15р., для нас важна любая помощь . В качестве благодарности мы отключим Вам всю рекламу на сайте (укажите свой ник в строку Ваше имя)!

×
  
Magnet ссылка

Американская история ужасов / American Horror Story / Сезон: 8 / Серии: 1-10 из 10 (Брэдли Букер) [2018, жасы, триллер, драма, WEB-DL 720p] MVO [Jaskier] piratbit.org

Американская история ужасов через торрент piratbit.org

Размер: 6.73 GB | Добавлен: 3 года назад | Торрент скачан:22 раза
Смотреть онлайн Американская история ужасов | Скачать    Ребята, помогите собрать деньги на оплату серверов!!!

22-09-2018 03:08 Американская история ужасов Скачать торрент  

Американская история ужасов / American Horror Story

Год выпуска: 2018
Страна: США
Жанр: ужасы, триллер, драма
Продолжительность: ~ 00:50:00
Перевод: Профессиональный (многоголосый закадровый) | Jaskier
Субтитры: отсутствуют

Режиссёр: Брэдли Букер, Дженнифер Линч, Гвинет Хордер-Пейтон, Шери Фолксон, Лони Перистер, Сара Полсон

В ролях:

Сара Полсон, Эван Питерс, Адина Портер, Билли Лурд, Лесли Гроссман, Коди Ферн, Эмма Робертс, Шайен Джексон, Кэти Бэйтс, Джессика Лэнг, Джоан Коллинз

Описание:

Восьмое пришествие одного из самых популярных хоррор-сериалов в истории. Вновь шоураннер Райан Мерфи собрал в проекте своих любимых актеров: Джессику Лэнг, Сару Полсон, Кэти Бейтс и Эвана Питерса. Новая глава антологии получила название «Апокалипсис» и представляет собой кроссовер первого и третьего сезонов — «Дом-убийца» и «Шабаш» соответственно. Речь пойдет о повзрослевшем Майкле Лэнгдоне — ребенке, который может стать предвестником конца света. К основному актерскому составу присоединилась легендарная Джоан Коллинз.

rating

Качество: WEB-DL 720p
Формат: MKV

Видео: X264, ~ 1500 kbps, 1280x720 (16:9), 23.976 fps
Аудио 1: AC3, 48,0 КГц, 6 ch, 384 kbps - Rus
Аудио 2: AC3, 48,0 КГц, 6 ch, 384 kbps - Eng


Реклама: аудио, два раза в начале и в конце по 13 секунд
Общее
Уникальный идентификатор                 : 174077518608261757609437945986802628274 (0x82F61C4E86ED08C68034C6D62731B6B2)
Полное имя                               : V:ONGOING\American Horror Story. Season 8 (WEB-DL l 720p l Jaskier)\American.Horror.Story.S08E01.720p.Jaskier.mkv
Формат                                   : Matroska
Версия формата                           : Version 2
Размер файла                             : 716 Мбайт
Продолжительность                        : 44 м.
Общий поток                              : 2265 Кбит/сек
Дата кодирования                         : UTC 2018-09-14 18:40:09
Программа кодирования                    : mkvmerge v7.8.0 ('River Man') 32bit built on Apr  3 2015 12:11:22
Библиотека кодирования                   : libebml v1.3.1 + libmatroska v1.4.2

Видео
Идентификатор                            : 1
Формат                                   : AVC
Формат/Информация                        : Advanced Video Codec
Профиль формата                          : High@L3.1
Параметр CABAC формата                   : Да
Параметр ReFrames формата                : 5 кадров
Идентификатор кодека                     : V_MPEG4/ISO/AVC
Продолжительность                        : 44 м.
Битрейт                                  : 1452 Кбит/сек
Ширина                                   : 1280 пикселей
Высота                                   : 720 пикселей
Соотношение сторон                       : 16:9
Режим частоты кадров                     : Постоянный
Частота кадров                           : 23,976 (24000/1001) кадра/сек
Цветовое пространство                    : YUV
Субдискретизация насыщенности            : 4:2:0
Битовая глубина                          : 8 бит
Тип развёртки                            : Прогрессивная
Бит/(Пиксели*Кадры)                      : 0.066
Размер потока                            : 459 Мбайт (64%)
Default                                  : Да
Forced                                   : Нет
Цветовой диапазон                        : Limited
Основные цвета                           : BT.709
Характеристики трансфера                 : BT.709
Коэффициенты матрицы                     : BT.709

Аудио #1
Идентификатор                            : 2
Формат                                   : AC-3
Формат/Информация                        : Audio Coding 3
Расширение режима                        : CM (complete main)
Параметр Endianness формата              : Big
Идентификатор кодека                     : A_AC3
Продолжительность                        : 44 м.
Вид битрейта                             : Постоянный
Битрейт                                  : 384 Кбит/сек
Каналы                                   : 6 каналов
Расположение каналов                     : Front: L C R, Side: L R, LFE
Частота                                  : 48,0 КГц
Частота кадров                           : 31,250 кадров/сек (1536 spf)
Метод сжатия                             : С потерями
Размер потока                            : 121 Мбайт (17%)
Заголовок                                : Jaskier
Язык                                     : Russian
Default                                  : Да
Forced                                   : Нет

Аудио #2
Идентификатор                            : 3
Формат                                   : AC-3
Формат/Информация                        : Audio Coding 3
Расширение режима                        : CM (complete main)
Параметр Endianness формата              : Big
Идентификатор кодека                     : A_AC3
Продолжительность                        : 44 м.
Вид битрейта                             : Постоянный
Битрейт                                  : 384 Кбит/сек
Каналы                                   : 6 каналов
Расположение каналов                     : Front: L C R, Side: L R, LFE
Частота                                  : 48,0 КГц
Частота кадров                           : 31,250 кадров/сек (1536 spf)
Метод сжатия                             : С потерями
Размер потока                            : 121 Мбайт (17%)
Язык                                     : English
Default                                  : Нет
Forced                                   : Нет
скриншот  скриншот  скриншот  
Когда раздача ведётся путём добавления новых серий, при каждом добавлении создётся новый торрент. Чтобы начать докачку новой серии, пользователям необходимо сделать следующее:
(1) остановить скачивание,
(2) удалить старый торрент у себя из клиента (старые серии удалять не надо),
(3) скачать новый торрент и запустить его у себя в клиенте вместо старого, при этом указать клиенту путь в старую папку, куда и должно происходить скачивание новых серий.
Ваш клиент при этом должен произвести хеширование (проверку) старой папки (если не производит сам - помогите ему сделать это), и будет докачивать только те серии, которых у вас ещё нет. Старые серии при этом не удаляются, а продолжают раздаваться!
Eсли вы уже удалили старые серии, то предотвратить повторную закачку старых серий можно, отжав галочку в соответсвующих местах при запуске нового торрента. По возможности, желательно не удалять старые серии как можно дольше, чтобы релизёр не столько продолжал раздавать старые серии, а смог сконцентрироваться на новых.
piratbit.org



Скачать Американская история ужасов через торрент http://i103.fastpic.ru/big/2018/0914/3e/72c79e745b2b4436e0ee051b2a73bc3e.png Скачать, смотреть онлайн Американская история ужасов бесплантно в хорошем качестве Описание: Восьмое пришествие одного из самых популярных хоррор-сериалов в истории. Вновь шоураннер Райан Мерфи собрал в проекте своих ... 10 10 6
Торрент: Зарегистрирован [2018-11-17 16:27] · скачан: 22 раз
Статус: √ проверено
Размер: 6.73 GB
Как cкачать? Как скачать Американская история ужасов через торрент | UTorrent

% Раздел Тема Автор DL S | L
Американская история ужасов [ 5.77 GB ] Американская история ужасов / American Horror Story / Сезон: 8 / Серии: 1-10 из 10 [2018 WEB-DLRip] MVO [LostFilm] bober100 Скачать
1 | 0
Американская история ужасов [ 22.58 GB ] Американская история ужасов / American Horror Story / Сезон: 8 / Серии: 1-10 из 10 [2018 WEB-DL 1080p] MVO [LostFilm] bober100 Скачать
1 | 0
Американская история ужасов [ 21.81 GB ] Американская история ужасов / American Horror Story / Сезон: 8 / Серии: 1-10 из 10 [2018 WEB-DL 1080p] MVO [Amedia] bober100 Скачать
1 | 0
Американская история ужасов [ 23.56 GB ] Американская история ужасов / American Horror Story / Сезон: 8 / Серии: 1-10 из 10 [2018 WEB-DL 1080p] MVO [BaibaKo] bober100 Скачать
1 | 0
Американская история ужасов [ 13.44 GB ] Американская история ужасов / American Horror Story / Сезон: 8 / Серии: 1-10 из 10 [2018 WEB-DL 720p] MVO [BaibaKo] bober100 Скачать
1 | 0
Американская история ужасов [ 4.98 GB ] Американская история ужасов / American Horror Story / Сезон: 8 / Серии: 1-10 из 10 [2018 WEB-DLRip] MVO [Jaskier] bober100 Скачать
1 | 0
Американская история ужасов [ 5.38 GB ] Американская история ужасов / American Horror Story / Сезон: 8 / Серии: 1-10 из 10 [2018 WEB-DL 720p] MVO [Amedia] bober100 Скачать
1 | 0

28-11-2019 20:33  

Отключить всю рекламу на сайте

    Дорогой пользователь! Огромная просьба, поблагодарите релизера, оцените раздачу и оставьте свои комментарий, если Вы скачали Американская история ужасов через торрент бесплатно!
    Комментировать посты могут только пользователи прошедшие не сложную регистрацию
    Показать сообщения:    

    Американская история ужасов через торрент
    Скачать бесплатно Американская история ужасов
    Американская история ужасов скачать торрент
    Американская история ужасов смотреть онлайн
    Cкачать фильм Американская история ужасов бесплатно
    Американская история ужасов скачать торрент в хорошем качестве
    Американская история ужасов смотреть онлайн бесплатно в хорошем качестве


    Вы не можете начинать темы
    Вы не можете отвечать на сообщения
    Вы не можете редактировать свои сообщения
    Вы не можете удалять свои сообщения
    Вы не можете голосовать в опросах
    Вы не можете прикреплять файлы к сообщениям
    Вы можете скачивать файлы