Присоединяйтесь к нам в Telegram!, здесь всегда актуальный адрес сайта, оперативная поддержка и многое другое!!

>

5.9

iTunes

7.4

iTunes

9.4

1 сезон

1

7.4

2 сезон

7.2

iTunes

7.3

1 сезон

13

6.1

iTunes

8.3

GOG

30

ULTIMATE

pack

9.9

Лицензия

ВАЖНО

ИГРА 18+

pack

7.3

RePack

MK11

7.7

RePack

jed

7.8

RePack

fifa19

8.5

RePack

RDR2

RePack

NEED FOR SPEED™ PAYBACK

5 сезон

9 сезон

Бесстыжие 9 сезон

Все сериалы

все сериалы на PB.wtf

RePack

FAR CRY 5

Anonymous, доброй ночи, мы катастрофически не успеваем собрать деньги на оплату серверов, помогите нам пожалуйста 5,10,15р., для нас важна любая помощь . В качестве благодарности мы отключим Вам всю рекламу на сайте (укажите свой ник в строку Ваше имя)!

×
  
Magnet ссылка

Американская история ужасов / American Horror Story / Сезон 01-04 / Серии 1-51 из 51 (Альфонсо Гомез-Рейон, Майкл Аппендаль, Брэдли Букер) [2011-2015, ужасы, триллер, драма, WEB-DLRip] Профессиональный многоголосый [LostFilm] piratbit.org

Американская история ужасов через торрент piratbit.org

Качают: 1 [ 0 KB/s ]
Размер: 20.49 GB | Добавлен: 5 лет назад | Торрент скачан:250 раз
Смотреть онлайн Американская история ужасов | Скачать    Ребята, помогите собрать деньги на оплату серверов!!!

11-11-2016 16:24 Американская история ужасов Скачать торрент  

Американская история ужасов / American Horror Story
Сезон 01-04 / Серии 1-51 из 51
Год выпуска: 2011-2015

Страна: США
Жанр: ужасы, триллер, драма

Продолжительность: 00:51:46 серия
Перевод: Профессиональный многоголосый [LostFilm]
Режиссер: Альфонсо Гомез-Рейон, Майкл Аппендаль, Брэдли Букер
В ролях:

Эван Питерс (Jimmy Darling), Сара Полсон (Bette Tattler), Дэнис О’Хэр (Spalding), Джессика Лэнг (Elsa Mars), Кэти Бейтс (Ethel Darling), Анджела Бассетт (Desiree Dupree), Лили Рэйб (Sister Mary Eunice McKee), Фрэнсис Конрой (Gloria Mott), Эмма Робертс (Madison Montgomery), Таисса Фармига (Zoe Benson), Уэс Бентли (Ambrose White), Шайен Джексон (Will Drake)
Описание:
Первый сезон сериала сосредоточен на семействе Хармонов, которые переезжают из Бостона в Лос-Анджелес, чтобы начать новую жизнь, и поселяются в старинном отреставрированном особняке, не представляя, что его предыдущие жильцы так и не нашли покоя после смерти.
Второй сезон рассказывает совершенно другую историю — действие разворачивается вокруг журналистки, которая приехала в психбольницу для душевнобольных преступников в надежде отснять репортаж о новоприбывшем маньяке «Кровавый лик», беспощадно убивавшем случайных женщин.
В третьем сезоне речь идет о шабаше ведьм, замаскированном под элитный пансион для «одаренных» девушек, который пытается защитить последних представительниц этого вида от вымирания.
Сюжет четвёртого сезона вращается вокруг одного из последних «Цирков уродов» в 1950-х годах.
Рейтинг:

Качество: WEB-DLRip
Формат: AVI
Видео: XviD, 720x400 (16:9), 1485 kbps, 23,976 fps, 0,215 bpp
Аудио: MP3 / 2.0 / 48 kHz / 192 kbps /
General
Complete name : E:\Torrent\film\American.Horror.Story.S1-S4.LostFilm\Season1\American.Horror.Story.S01E01.rus.LostFilm.TV.avi
Format : AVI
Format/Info : Audio Video Interleave
File size : 625 MiB
Duration : 51 min
Overall bit rate mode : Variable
Overall bit rate : 1 689 kb/s
Writing application : Nandub v1.0rc2
Writing library : Nandub build 1853/release

Video
ID : 0
Format : MPEG-4 Visual
Format profile : Simple@L3
Format settings, BVOP : No
Format settings, QPel : No
Format settings, GMC : No warppoints
Format settings, Matrix : Default (H.263)
Codec ID : XVID
Codec ID/Hint : XviD
Duration : 51 min
Bit rate : 1 486 kb/s
Width : 720 pixels
Height : 400 pixels
Display aspect ratio : 16:9
Frame rate : 23.976 (24000/1001) FPS
Color space : YUV
Chroma subsampling : 4:2:0
Bit depth : 8 bits
Scan type : Progressive
Compression mode : Lossy
Bits/(Pixel*Frame) : 0.215
Stream size : 550 MiB (88%)
Writing library : XviD 1.2.1 (UTC 2008-12-04)

Audio
ID : 1
Format : MPEG Audio
Format version : Version 1
Format profile : Layer 3
Mode : Joint stereo
Mode extension : MS Stereo
Codec ID : 55
Codec ID/Hint : MP3
Duration : 51 min
Bit rate mode : Variable
Bit rate : 192 kb/s
Channel(s) : 2 channels
Sampling rate : 48.0 kHz
Compression mode : Lossy
Stream size : 70.6 MiB (11%)
Alignment : Aligned on interleaves
Interleave, duration : 24 ms (0.58 video frame)
Interleave, preload duration : 463 ms
Writing library : LAME3.97b
Encoding settings : -m j -V 4 -q 3 -lowpass 18.6 --abr 192
piratbit.org



Скачать Американская история ужасов через торрент http://i1.imageban.ru/out/2016/11/12/ff14ff7e0f38f472c037f63687cc0d55.jpg Скачать, смотреть онлайн Американская история ужасов бесплантно в хорошем качестве Описание: Первый сезон сериала сосредоточен на семействе Хармонов, которые переезжают из Бостона в Лос-Анджелес, чтобы начать новую жизнь, ... 8.1 10 7
Info! Золотая раздача, скачанное не засчитывается.
Торрент: Зарегистрирован [2016-11-11 16:24] · скачан: 250 раз
Статус: √ проверено
Размер: 20.49 GB
Как cкачать? Как скачать Американская история ужасов через торрент | UTorrent



Последний раз редактировалось: xipypr (2016-11-12 13:44), всего редактировалось 13 раз(а)

28-11-2019 20:33  

Отключить всю рекламу на сайте

12-11-2016 08:40 Американская история ужасов Скачать торрент  

xipypr, оформите в соответствии с Правилами оформления раздач в разделе «Зарубежные Сериалы»
Обратите внимание на заголовок, добавьте общее количество серий в раздаче, год выпуска указывайте первого и последнего раздающегося сезонов, укажите качество видео, добавьте в заголовок чья именно озвучка (LostFilm).
Замените постер, его размеры не должны превышать 700*700 пикселей.
Заполните правильно тех. данные о файле, они не должны находиться под спойлером МедиаИнфо.
Когда исправите оформление, или если есть вопросы, пишите в л\с.
piratbit.org





Последний раз редактировалось: -Lexx- (2016-11-12 15:57), всего редактировалось 2 раз(а)

12-11-2016 13:28 Американская история ужасов Скачать торрент  

-Lexx-, Здравствуйте,я исправил вроде все.piratbit.org



12-11-2016 15:39 Американская история ужасов Скачать торрент  

xipypr, учитывая, что это одна из первых ваших раздач на нашем трекере, оформление поправил. Пусть будет вам для образца.
Удачных релизов.piratbit.org





Последний раз редактировалось: -Lexx- (2016-11-12 16:23), всего редактировалось 1 раз

22-02-2019 18:00 Американская история ужасов Скачать торрент  

встаньте на раздачу плзpiratbit.org



    Дорогой пользователь! Огромная просьба, поблагодарите релизера, оцените раздачу и оставьте свои комментарий, если Вы скачали Американская история ужасов через торрент бесплатно!
    Комментировать посты могут только пользователи прошедшие не сложную регистрацию
    Показать сообщения:    

    Американская история ужасов через торрент
    Скачать бесплатно Американская история ужасов
    Американская история ужасов скачать торрент
    Американская история ужасов смотреть онлайн
    Cкачать фильм Американская история ужасов бесплатно
    Американская история ужасов скачать торрент в хорошем качестве
    Американская история ужасов смотреть онлайн бесплатно в хорошем качестве


    Вы не можете начинать темы
    Вы не можете отвечать на сообщения
    Вы не можете редактировать свои сообщения
    Вы не можете удалять свои сообщения
    Вы не можете голосовать в опросах
    Вы не можете прикреплять файлы к сообщениям
    Вы можете скачивать файлы