Присоединяйтесь к нам в Telegram!, здесь всегда актуальный адрес сайта, оперативная поддержка и многое другое!!

>

5.9

iTunes

7.4

iTunes

9.4

1 сезон

1

7.4

2 сезон

7.2

iTunes

7.3

iTunes

13

6.1

iTunes

8.3

Пиратка

30

ULTIMATE

pack

9.9

Лицензия

ВАЖНО

ИГРА 18+

pack

7.3

RePack

MK11

7.7

RePack

jed

7.8

RePack

fifa19

8.5

RePack

RDR2

RePack

NEED FOR SPEED™ PAYBACK

5 сезон

9 сезон

Бесстыжие 9 сезон

Все сериалы

все сериалы на PB.wtf

RePack

FAR CRY 5

Anonymous, добрый вечер, мы катастрофически не успеваем собрать деньги на оплату серверов, помогите нам пожалуйста 5,10,15р., для нас важна любая помощь . В качестве благодарности мы отключим Вам всю рекламу на сайте (укажите свой ник в строку Ваше имя)!

×
  
Magnet ссылка

Американская история ужасов / American Horror Story / Сезон: 8 / Серии: 1-10 из 10 (Брэдли Букер, Лиза Джонсон и др.) [2018, Ужасы, фэнтези, триллер, драма, WEB-DLRip] MVO [LostFilm] piratbit.org

Американская история ужасов через торрент piratbit.org

Размер: 5.77 GB | Добавлен: 2 года 11 мес. назад | Торрент скачан:109 раз
Смотреть онлайн Американская история ужасов | Скачать    Ребята, помогите собрать деньги на оплату серверов!!!

20-11-2018 06:53 Американская история ужасов Скачать торрент  

Американская история ужасов / American Horror Story
Год выпуска: 2018
Страна: США
Жанр: Ужасы, фэнтези, триллер, драма
Продолжительность: ~ 00:50:00
Перевод: Профессиональный (многоголосый) | LostFilm
Субтитры: отсутствуют

Режиссер: Брэдли Букер, Лиза Джонсон, Гвинет Хордер-Пейтон, Мэгги Кили, Рейчел Голдберг, Анджела Бассетт

rating

В ролях:

Брэдли Букер, Лиза Джонсон, Гвинет Хордер-Пейтон, Мэгги Кили, Рейчел Голдберг, Анджела Бассетт
В главных ролях: Cара Полсон, Эван Питерс, Шайенн Джексон, Билли Лурд, Элисон Пилл, Колтон Хейнс, Билли Айкнер, Лесли Гроссман, Адина Портер, Лина Данэм, Эмма Робертс, Фрэнсис Конрой, Мэр Уиннингхэм, Чез Боно

Описание:

8-я часть проекта будет кроссовером 1-го и 3-го сезонов: «Дом-убийца» и «Шабаш». Предполагается, что неродившийся ребенок, показанный в первом тизере «Апокалипсиса», — это Майкл Лэнгдон, дитя Тейта Лэнгдона и изнасилованной им Вивьен Хармон из «Дома-убийцы». Сюжет этого сезона будет разворачиваться вокруг ядерного апокалипсиса.

Качество: WEB-DLRip | Без заставки и логотипа LostFilm.
Формат: AVI

Видео: 720x400 at 23.976 fps, XviD, ~1 800 kbps avg
Аудио: Russian: 48 kHz, AC3, 2/0 (L,R) ch, ~192 kbps avg |Профессиональный многоголосый, LostFilm|
скриншот  скриншот  скриншот  скриншот  

Общее
Полное имя : D:\American.Horror.Story (Season 03)\American.Horror.Story.s08e01.WEB-DLRip.avi
Формат : AVI
Формат/Информация : Audio Video Interleave
Размер файла : 633 Мбайт
Продолжительность : 44 м. 13 с.
Общий поток : 2001 Кбит/сек
Программа кодирования : VirtualDubMod 1.5.10.3 | www.virtualdub-fr.org || (build 2550/release)
Библиотека кодирования : VirtualDubMod build 2550/release

Видео
Идентификатор : 0
Формат : MPEG-4 Visual
Профиль формата : Advanced Simple@L5
Параметр BVOP формата : 1
Параметр QPel формата : Да
Параметр GMC формата : Без точки перехода
Параметр матрицы формата : Default (MPEG)
Идентификатор кодека : XVID
Идентификатор кодека/Подсказка : XviD
Продолжительность : 44 м. 13 с.
Битрейт : 1800 Кбит/сек
Ширина : 720 пикселей
Высота : 400 пикселей
Соотношение сторон : 16:9
Частота кадров : 23,976 (23976/1000) кадра/сек
Цветовое пространство : YUV
Субдискретизация насыщенности : 4:2:0
Битовая глубина : 8 бит
Тип развёртки : Прогрессивная
Метод сжатия : С потерями
Бит/(Пиксели*Кадры) : 0.261
Размер потока : 569 Мбайт (90%)
Библиотека кодирования : XviD 73

Аудио
Идентификатор : 1
Формат : AC-3
Формат/Информация : Audio Coding 3
Расширение режима : CM (complete main)
Параметр Endianness формата : Big
Идентификатор кодека : 2000
Продолжительность : 44 м. 13 с.
Вид битрейта : Постоянный
Битрейт : 192 Кбит/сек
Каналы : 2 канала
Расположение каналов : Front: L R
Частота : 48,0 КГц
Частота кадров : 31,250 кадров/сек (1536 spf)
Метод сжатия : С потерями
Размер потока : 60,7 Мбайт (10%)
Выравнивание : Разделение по промежуткам
Продолжительность промежутка : 42 мс. (1,00 видеокадр)
Время предзагрузки промежутка : 500 мс.

piratbit.org



Скачать Американская история ужасов через торрент https://i4.imageban.ru/out/2018/10/13/c5b5a1e137c1d562716ae07964d31d90.png Скачать, смотреть онлайн Американская история ужасов бесплантно в хорошем качестве Описание: 8-я часть проекта будет кроссовером 1-го и 3-го сезонов: «Дом-убийца» и «Шабаш». Предполагается, что неродившийся ребенок, ... 10 10 3
Торрент: Зарегистрирован [2018-12-24 11:28] · скачан: 109 раз
Статус: √ проверено
Размер: 5.77 GB
Как cкачать? Как скачать Американская история ужасов через торрент | UTorrent

% Раздел Тема Автор DL S | L
Американская история ужасов [ 22.58 GB ] Американская история ужасов / American Horror Story / Сезон: 8 / Серии: 1-10 из 10 [2018 WEB-DL 1080p] MVO [LostFilm] bober100 Скачать
1 | 0
Американская история ужасов [ 21.81 GB ] Американская история ужасов / American Horror Story / Сезон: 8 / Серии: 1-10 из 10 [2018 WEB-DL 1080p] MVO [Amedia] bober100 Скачать
1 | 0
Американская история ужасов [ 23.56 GB ] Американская история ужасов / American Horror Story / Сезон: 8 / Серии: 1-10 из 10 [2018 WEB-DL 1080p] MVO [BaibaKo] bober100 Скачать
1 | 0
Американская история ужасов [ 13.44 GB ] Американская история ужасов / American Horror Story / Сезон: 8 / Серии: 1-10 из 10 [2018 WEB-DL 720p] MVO [BaibaKo] bober100 Скачать
1 | 0
Американская история ужасов [ 4.98 GB ] Американская история ужасов / American Horror Story / Сезон: 8 / Серии: 1-10 из 10 [2018 WEB-DLRip] MVO [Jaskier] bober100 Скачать
1 | 0
Американская история ужасов [ 5.38 GB ] Американская история ужасов / American Horror Story / Сезон: 8 / Серии: 1-10 из 10 [2018 WEB-DL 720p] MVO [Amedia] bober100 Скачать
1 | 0
Американская история ужасов [ 6.73 GB ] Американская история ужасов / American Horror Story / Сезон: 8 / Серии: 1-10 из 10 [2018 жасы WEB-DL 720p] MVO [Jaskier] bober100 Скачать
1 | 0

28-11-2019 20:33  

Отключить всю рекламу на сайте

    Дорогой пользователь! Огромная просьба, поблагодарите релизера, оцените раздачу и оставьте свои комментарий, если Вы скачали Американская история ужасов через торрент бесплатно!
    Комментировать посты могут только пользователи прошедшие не сложную регистрацию
    Показать сообщения:    

    Американская история ужасов через торрент
    Скачать бесплатно Американская история ужасов
    Американская история ужасов скачать торрент
    Американская история ужасов смотреть онлайн
    Cкачать фильм Американская история ужасов бесплатно
    Американская история ужасов скачать торрент в хорошем качестве
    Американская история ужасов смотреть онлайн бесплатно в хорошем качестве


    Вы не можете начинать темы
    Вы не можете отвечать на сообщения
    Вы не можете редактировать свои сообщения
    Вы не можете удалять свои сообщения
    Вы не можете голосовать в опросах
    Вы не можете прикреплять файлы к сообщениям
    Вы можете скачивать файлы