Присоединяйтесь к нам в Telegram!, здесь всегда актуальный адрес сайта, оперативная поддержка и многое другое!!

>

5.9

iTunes

7.4

iTunes

9.4

1 сезон

1

7.4

2 сезон

7.2

iTunes

7.3

1 сезон

13

6.1

iTunes

8.3

Пиратка

30

ULTIMATE

pack

9.9

Лицензия

ВАЖНО

ИГРА 18+

pack

7.3

RePack

MK11

7.7

RePack

jed

7.8

RePack

fifa19

8.5

RePack

RDR2

RePack

NEED FOR SPEED™ PAYBACK

5 сезон

9 сезон

Бесстыжие 9 сезон

Все сериалы

все сериалы на PB.wtf

RePack

FAR CRY 5

Anonymous, доброй ночи, мы катастрофически не успеваем собрать деньги на оплату серверов, помогите нам пожалуйста 5,10,15р., для нас важна любая помощь . В качестве благодарности мы отключим Вам всю рекламу на сайте (укажите свой ник в строку Ваше имя)!

×
  
Magnet ссылка

Американская история ужасов / American Horror Story / Сезон: 8 / Серии: 1-10 из 10 (Брэдли Букер) [2018, ужасы, триллер, драма, WEB-DLRip] MVO [Jaskier] piratbit.org

Американская история ужасов через торрент piratbit.org

Размер: 4.98 GB | Добавлен: 3 года назад | Торрент скачан:11 раз
Смотреть онлайн Американская история ужасов | Скачать    Ребята, помогите собрать деньги на оплату серверов!!!

22-09-2018 03:08 Американская история ужасов Скачать торрент  

Американская история ужасов / American Horror Story

Год выпуска: 2018
Страна: США
Жанр: ужасы, триллер, драма
Продолжительность: ~ 00:50:00
Перевод: Профессиональный (многоголосый закадровый) | Jaskier
Субтитры: отсутствуют

Режиссёр: Брэдли Букер, Дженнифер Линч, Гвинет Хордер-Пейтон, Шери Фолксон, Лони Перистер, Сара Полсон

В ролях:

Сара Полсон, Эван Питерс, Адина Портер, Билли Лурд, Лесли Гроссман, Коди Ферн, Эмма Робертс, Шайен Джексон, Кэти Бэйтс, Джессика Лэнг, Джоан Коллинз

Описание: Восьмое пришествие одного из самых популярных хоррор-сериалов в истории. Вновь шоураннер Райан Мерфи собрал в проекте своих любимых актеров: Джессику Лэнг, Сару Полсон, Кэти Бейтс и Эвана Питерса. Новая глава антологии получила название «Апокалипсис» и представляет собой кроссовер первого и третьего сезонов — «Дом-убийца» и «Шабаш» соответственно. Речь пойдет о повзрослевшем Майкле Лэнгдоне — ребенке, который может стать предвестником конца света. К основному актерскому составу присоединилась легендарная Джоан Коллинз.

rating

Качество: WEB-DLRip
Формат: AVI

Видео: XviD, ~ 1400 kbps, 720x400, 23.976 fps
Аудио 1: MP3, 48,0 КГц, 2 ch, 128 kbps - RUS
Аудио 2: MP3, 48,0 КГц, 2 ch, 128 kbps - ENG


Реклама: аудио, два раза в начале и в конце по 13 секунд
Общее
Полное имя                               : V:ONGOING\American Horror Story. Season 8 (WEB-DL l 400p l Jaskier)\American.Horror.Story.S08E01.400p.Jaskier.avi
Формат                                   : AVI
Формат/Информация                        : Audio Video Interleave
Размер файла                             : 528 Мбайт
Продолжительность                        : 44 м.
Общий поток                              : 1670 Кбит/сек
Программа кодирования                    : VirtualDubMod 1.5.10.3 | www.virtualdub-fr.org || (build 2550/release)
Библиотека кодирования                   : VirtualDubMod build 2550/release

Видео
Идентификатор                            : 0
Формат                                   : MPEG-4 Visual
Профиль формата                          : Advanced Simple@L5
Параметр BVOP формата                    : 2
Параметр QPel формата                    : Нет
Параметр GMC формата                     : Без точки перехода
Параметр матрицы формата                 : Выборочная
Идентификатор кодека                     : XVID
Идентификатор кодека/Подсказка           : XviD
Продолжительность                        : 44 м.
Битрейт                                  : 1400 Кбит/сек
Ширина                                   : 720 пикселей
Высота                                   : 400 пикселей
Соотношение сторон                       : 16:9
Частота кадров                           : 23,976 (23976/1000) кадра/сек
Цветовое пространство                    : YUV
Субдискретизация насыщенности            : 4:2:0
Битовая глубина                          : 8 бит
Тип развёртки                            : Прогрессивная
Метод сжатия                             : С потерями
Бит/(Пиксели*Кадры)                      : 0.203
Размер потока                            : 443 Мбайт (84%)
Библиотека кодирования                   : XviD 73

Аудио #1
Идентификатор                            : 1
Формат                                   : MPEG Audio
Версия формата                           : Version 1
Профиль формата                          : Layer 3
Режим                                    : Joint stereo
Расширение режима                        : MS Stereo
Идентификатор кодека                     : 55
Идентификатор кодека/Подсказка           : MP3
Продолжительность                        : 44 м.
Вид битрейта                             : Постоянный
Битрейт                                  : 128 Кбит/сек
Каналы                                   : 2 канала
Частота                                  : 48,0 КГц
Метод сжатия                             : С потерями
Размер потока                            : 40,5 Мбайт (8%)
Выравнивание                             : Соединение по промежуткам
Продолжительность промежутка             : 42  мс. (1,00 видеокадр)
Время предзагрузки промежутка            : 504  мс.

Аудио #2
Идентификатор                            : 2
Формат                                   : MPEG Audio
Версия формата                           : Version 1
Профиль формата                          : Layer 3
Режим                                    : Joint stereo
Расширение режима                        : MS Stereo
Идентификатор кодека                     : 55
Идентификатор кодека/Подсказка           : MP3
Продолжительность                        : 44 м.
Вид битрейта                             : Постоянный
Битрейт                                  : 128 Кбит/сек
Каналы                                   : 2 канала
Частота                                  : 48,0 КГц
Метод сжатия                             : С потерями
Размер потока                            : 40,5 Мбайт (8%)
Выравнивание                             : Соединение по промежуткам
Продолжительность промежутка             : 42  мс. (1,00 видеокадр)
Время предзагрузки промежутка            : 504  мс.
скриншот  скриншот  скриншот  
Когда раздача ведётся путём добавления новых серий, при каждом добавлении создётся новый торрент. Чтобы начать докачку новой серии, пользователям необходимо сделать следующее:
(1) остановить скачивание,
(2) удалить старый торрент у себя из клиента (старые серии удалять не надо),
(3) скачать новый торрент и запустить его у себя в клиенте вместо старого, при этом указать клиенту путь в старую папку, куда и должно происходить скачивание новых серий.
Ваш клиент при этом должен произвести хеширование (проверку) старой папки (если не производит сам - помогите ему сделать это), и будет докачивать только те серии, которых у вас ещё нет. Старые серии при этом не удаляются, а продолжают раздаваться!
Eсли вы уже удалили старые серии, то предотвратить повторную закачку старых серий можно, отжав галочку в соответсвующих местах при запуске нового торрента. По возможности, желательно не удалять старые серии как можно дольше, чтобы релизёр не столько продолжал раздавать старые серии, а смог сконцентрироваться на новых.
piratbit.org



Скачать Американская история ужасов через торрент http://i103.fastpic.ru/big/2018/0914/3e/72c79e745b2b4436e0ee051b2a73bc3e.png Скачать, смотреть онлайн Американская история ужасов бесплантно в хорошем качестве Описание: Восьмое пришествие одного из самых популярных хоррор-сериалов в истории. Вновь шоураннер Райан Мерфи собрал в проекте своих ... 10 10 6
Торрент: Зарегистрирован [2018-11-17 16:26] · скачан: 11 раз
Статус: √ проверено
Размер: 4.98 GB
Как cкачать? Как скачать Американская история ужасов через торрент | UTorrent

% Раздел Тема Автор DL S | L
Американская история ужасов [ 5.77 GB ] Американская история ужасов / American Horror Story / Сезон: 8 / Серии: 1-10 из 10 [2018 WEB-DLRip] MVO [LostFilm] bober100 Скачать
1 | 0
Американская история ужасов [ 22.58 GB ] Американская история ужасов / American Horror Story / Сезон: 8 / Серии: 1-10 из 10 [2018 WEB-DL 1080p] MVO [LostFilm] bober100 Скачать
1 | 0
Американская история ужасов [ 21.81 GB ] Американская история ужасов / American Horror Story / Сезон: 8 / Серии: 1-10 из 10 [2018 WEB-DL 1080p] MVO [Amedia] bober100 Скачать
1 | 0
Американская история ужасов [ 23.56 GB ] Американская история ужасов / American Horror Story / Сезон: 8 / Серии: 1-10 из 10 [2018 WEB-DL 1080p] MVO [BaibaKo] bober100 Скачать
1 | 0
Американская история ужасов [ 13.44 GB ] Американская история ужасов / American Horror Story / Сезон: 8 / Серии: 1-10 из 10 [2018 WEB-DL 720p] MVO [BaibaKo] bober100 Скачать
1 | 0
Американская история ужасов [ 5.38 GB ] Американская история ужасов / American Horror Story / Сезон: 8 / Серии: 1-10 из 10 [2018 WEB-DL 720p] MVO [Amedia] bober100 Скачать
1 | 0
Американская история ужасов [ 6.73 GB ] Американская история ужасов / American Horror Story / Сезон: 8 / Серии: 1-10 из 10 [2018 жасы WEB-DL 720p] MVO [Jaskier] bober100 Скачать
1 | 0


Последний раз редактировалось: bober100 (2018-11-17 16:26), всего редактировалось 1 раз

28-11-2019 20:33  

Отключить всю рекламу на сайте

02-11-2018 18:53 Американская история ужасов Скачать торрент  

Еще серии будут ?...............................piratbit.org



    Дорогой пользователь! Огромная просьба, поблагодарите релизера, оцените раздачу и оставьте свои комментарий, если Вы скачали Американская история ужасов через торрент бесплатно!
    Комментировать посты могут только пользователи прошедшие не сложную регистрацию
    Показать сообщения:    

    Американская история ужасов через торрент
    Скачать бесплатно Американская история ужасов
    Американская история ужасов скачать торрент
    Американская история ужасов смотреть онлайн
    Cкачать фильм Американская история ужасов бесплатно
    Американская история ужасов скачать торрент в хорошем качестве
    Американская история ужасов смотреть онлайн бесплатно в хорошем качестве


    Вы не можете начинать темы
    Вы не можете отвечать на сообщения
    Вы не можете редактировать свои сообщения
    Вы не можете удалять свои сообщения
    Вы не можете голосовать в опросах
    Вы не можете прикреплять файлы к сообщениям
    Вы можете скачивать файлы