Присоединяйтесь к нам в Telegram!, здесь всегда актуальный адрес сайта, оперативная поддержка и многое другое!!

>

5.9

iTunes

7.4

iTunes

9.4

1 сезон

1

7.4

2 сезон

7.2

iTunes

7.3

1 сезон

13

6.1

iTunes

8.3

GOG

30

ULTIMATE

pack

9.9

Лицензия

ВАЖНО

ИГРА 18+

pack

7.3

RePack

MK11

7.7

RePack

jed

7.8

RePack

fifa19

8.5

RePack

RDR2

RePack

NEED FOR SPEED™ PAYBACK

5 сезон

9 сезон

Бесстыжие 9 сезон

Все сериалы

все сериалы на PB.wtf

RePack

FAR CRY 5

Anonymous, доброй ночи, мы катастрофически не успеваем собрать деньги на оплату серверов, помогите нам пожалуйста 5,10,15р., для нас важна любая помощь . В качестве благодарности мы отключим Вам всю рекламу на сайте (укажите свой ник в строку Ваше имя)!

×
  
Magnet ссылка

Американская история ужасов: Культ /American Horror Story: Cult / Сeзон: 7 / Cерии 1-11 из 11 (Брэдли Букер, Альфонсо Гомес-Рехон, Майкл Аппендаль) [2017 г., Ужасы, фэнтези, триллер, драма, WEBRip-AVC] MVO [BaibaKo] piratbit.org

Американская история ужасов: Культ через торрент piratbit.org

Размер: 9.02 GB | Добавлен: 4 года назад | Торрент скачан:88 раз
Смотреть онлайн Американская история ужасов: Культ | Скачать    Ребята, помогите собрать деньги на оплату серверов!!!

07-09-2017 00:27 Американская история ужасов: Культ Скачать торрент  


Американская история ужасов: Культ /American Horror Story: Cult

«Вам помогут»


  • Год выпуска: 2017
  • Страна: США
  • Жанр: Ужасы, фэнтези, триллер, драма
  • Продолжительность: ~00:50:00 (Серия)
  • Перевод: Профессиональный многоголосый [BaibaKo]
  • Режиссер: Брэдли Букер, Альфонсо Гомес-Рехон, Майкл Аппендаль
  • В ролях:
    Сара Полсон, Эван Питерс, Шайенн Джексон, Билли Лурд, Элисон Пилл, Колтон Хейнс, Билли Айкнер, Лесли Гроссман, Адина Портер , Лина Данэм , Эмма Робертс, Фрэнсис Конрой, Мэр Уиннингэм, Чез Боно


  • Новый сезон популярного сериала «Американская история ужасов» носит название «Культ». Местом действия на этот раз станет не странноватый отель и не психиатрическая больница, а городок под названием Брукфилд Хайтс, что в штате Мичиган. События будут разворачиваться в 2016 году сразу после победы на выборах кандидат от республиканцев Дональда Трампа. Персонажи этой истории будут по-своему переживать последствия данного мероприятия, и без помутнения рассудка тут никак не обойдется. Одна из героинь после вступления в должность нового главы государства почувствует обострение своих страхов, которые у женщины связаны со зловещими клоунами. Постепенно даже территория собственного дома перестанет быть для главной героини безопасной и тогда волна безумия полностью накроет женщину… Какие же еще темные стороны современной реальности раскроет перед зрителями «Культ»?
  • Рейтинг:



  • Качество: WEBRip-AVC
  • Формат: :MPEG-4
  • Видео кодек: AVC
  • Аудио кодек: AC3
  • Видео: 1792 Кбит/сек, 1024*576 (16:9), в 23,976 (24000/1001) кадра/сек, AVC
  • Аудио №1: русский 384 Кбит/сек, 48,0 КГц, 16 бит, 6 каналов, AC-3| [BaibaKo]|
  • Аудио №2: английский 384 Кбит/сек, 48,0 КГц, 16 бит, 6 каналов, AC-3
  • Релиз от: GEKADOL

    Внимание! Раздача ведётся путём добавления новых серий; при каждом добавлении создаётся новый торрент. Чтобы начать докачку новой серии, пользователям необходимо сделать следующее:
    (1) остановить скачивание,
    (2) удалить старый торрент у себя из клиента (старые серии удалять не надо),
    (3) скачать новый торрент и запустить его у себя в клиенте вместо старого, при этом указать клиенту путь в старую папку куда и должно происходить скачивание новых серий.
    Ваш клиент при этом должен произвести хеширование (проверку) старой папки (если не производит сам - помогите ему сделать это), и будет докачивать только те серии которых у вас ещё нет. Старые серии при этом не удаляются, а продолжают раздаваться!
    Eсли вы уже удалили старые серии, то предотвратить повторную закачку старых серий можно, отжав галочку в соответсвующих местах при запуске нового торрента. По возможности, желательно не удалять старые серии как можно дольше чтобы релизёр не столько продолжал раздавать старые серии, а смог сконцентрироваться на новых.
    Общее
    Полное имя : F:\Американская история ужасов. Культ (American Horror Story. Cult)\American.Horror.Story.s07e01.WEBRip-AVC.Rus.Eng.BaibaKo.tv.mp4
    Формат : MPEG-4
    Профиль формата : Base Media
    Идентификатор кодека : isom (isom/iso2/avc1/mp41)
    Размер файла : 887 Мбайт
    Продолжительность : 48 м. 19 с.
    Общий поток : 2565 Кбит/сек
    Программа кодирования : XviD4PSP 7.0.402 DAILY
    HDVideo : Yes
    encoding_info : MATROSKA / WEBM > MP4 Произвольный / H264 > X264 CBR 2000kbps HQ / AC3 > AC3 CBR 384kbps / AC3 > AC3 CBR 384kbps

    Видео
    Идентификатор : 1
    Формат : AVC
    Формат/Информация : Advanced Video Codec
    Профиль формата : High@L3.1
    Параметр CABAC формата : Да
    Параметр RefFrames формата : 4 кадра
    Идентификатор кодека : avc1
    Идентификатор кодека/Информация : Advanced Video Coding
    Продолжительность : 48 м. 19 с.
    Битрейт : 1792 Кбит/сек
    Номинальный битрейт : 2000 Кбит/сек
    Ширина : 1024 пикселя
    Высота : 576 пикселей
    Соотношение сторон : 16:9
    Режим частоты кадров : Постоянный
    Частота кадров : 23,976 (24000/1001) кадра/сек
    Цветовое пространство : YUV
    Субдискретизация насыщенности : 4:2:0
    Битовая глубина : 8 бит
    Тип развёртки : Прогрессивная
    Бит/(Пиксели*Кадры) : 0.127
    Размер потока : 619 Мбайт (70%)
    Библиотека кодирования : x264 core 152 r2851M ba24899
    Настройки программы : cabac=1 / ref=3 / deblock=1:-1:-1 / analyse=0x3:0x133 / me=hex / subme=7 / psy=1 / psy_rd=1.00:0.20 / mixed_ref=1 / me_range=16 / chroma_me=1 / trellis=1 / 8x8dct=1 / cqm=0 / deadzone=21,11 / fast_pskip=1 / chroma_qp_offset=-3 / threads=5 / lookahead_threads=1 / sliced_threads=0 / nr=0 / decimate=1 / interlaced=0 / bluray_compat=0 / constrained_intra=0 / bframes=3 / b_pyramid=2 / b_adapt=2 / b_bias=0 / direct=3 / weightb=1 / open_gop=0 / weightp=2 / keyint=230 / keyint_min=23 / scenecut=40 / intra_refresh=0 / rc_lookahead=40 / rc=cbr / mbtree=1 / bitrate=2000 / ratetol=1.0 / qcomp=0.60 / qpmin=0 / qpmax=69 / qpstep=4 / vbv_maxrate=2000 / vbv_bufsize=1428 / nal_hrd=none / filler=0 / ip_ratio=1.40 / aq=1:1.00

    Аудио #1
    Идентификатор : 2
    Формат : AC-3
    Формат/Информация : Audio Coding 3
    Параметр Endianness формата : Big
    Идентификатор кодека : ac-3
    Продолжительность : 48 м. 19 с.
    Вид битрейта : Постоянный
    Битрейт : 384 Кбит/сек
    Каналы : 6 каналов
    Расположение каналов : Front: L C R, Side: L R, LFE
    Частота : 48,0 КГц
    Частота кадров : 31,250 кадров/сек (1536 SPF)
    Битовая глубина : 16 бит
    Метод сжатия : С потерями
    Размер потока : 133 Мбайт (15%)
    Язык : Russian
    ServiceKind/String : Complete Main
    Default : Да
    AlternateGroup/String : 1

    Аудио #2
    Идентификатор : 3
    Формат : AC-3
    Формат/Информация : Audio Coding 3
    Параметр Endianness формата : Big
    Идентификатор кодека : ac-3
    Продолжительность : 48 м. 19 с.
    Вид битрейта : Постоянный
    Битрейт : 384 Кбит/сек
    Каналы : 6 каналов
    Расположение каналов : Front: L C R, Side: L R, LFE
    Частота : 48,0 КГц
    Частота кадров : 31,250 кадров/сек (1536 SPF)
    Битовая глубина : 16 бит
    Метод сжатия : С потерями
    Размер потока : 133 Мбайт (15%)
    Язык : English
    ServiceKind/String : Complete Main
    Default : Нет
    AlternateGroup/String : 1



    Скриншоты:
    скриншот   скриншот   скриншот   скриншот   скриншот   скриншот   скриншот  
    скриншот  

    Раздача ведётся путём добавления новых серий. Добавлена 11 серия (16.11.2017).Просьба перекачать торрент файл.

    piratbit.org



  • Скачать Американская история ужасов: Культ через торрент https://pic1.kartinco.top/images/11/zdcqf.jpg Скачать, смотреть онлайн Американская история ужасов: Культ бесплантно в хорошем качестве qw.png Новый сезон популярного сериала «Американская история ужасов» носит название «Культ». Местом действия на этот раз станет не ... 10 10 6
    Info! Золотая раздача, скачанное не засчитывается.
    Торрент: Зарегистрирован [2017-11-16 06:38] · скачан: 88 раз
    Статус: √ проверено
    Размер: 9.02 GB
    Как cкачать? Как скачать Американская история ужасов: Культ через торрент | UTorrent



    Последний раз редактировалось: GEKADOL (2017-11-16 06:38), всего редактировалось 11 раз(а)

    28-11-2019 20:33  

    Отключить всю рекламу на сайте

    28-09-2017 06:43 Американская история ужасов: Культ Скачать торрент  

    а что случилось, Novamedia в среду озвучка появлялась, а тут все нет ее? в смысле вообще нет(piratbit.org



    29-09-2017 05:59 Американская история ужасов: Культ Скачать торрент  

    DavidLynch писал(а):

    а что случилось, Novamedia в среду озвучка появлялась, а тут все нет ее? в смысле вообще нет(

    Не понял вопроса!piratbit.org



    02-11-2017 07:48 Американская история ужасов: Культ Скачать торрент  

    GEKADOL, Добрый день,сколько серий будет в сезоне 10 или 11?piratbit.org



    16-11-2017 07:18 Американская история ужасов: Культ Скачать торрент  

    Nordmenn писал(а):

    GEKADOL, Добрый день,сколько серий будет в сезоне 10 или 11?

    11 теперь полный сезон. piratbit.org



    16-11-2017 07:26 Американская история ужасов: Культ Скачать торрент  

    а вот и финал, я в общем то удивлен, в приятном смысле этим сезоном, в отличие от предыдущего который был откровенной помойкой, этот очень даже, не стандартный и креативный что ли, сюжет не плохой как по мнеpiratbit.org



      Дорогой пользователь! Огромная просьба, поблагодарите релизера, оцените раздачу и оставьте свои комментарий, если Вы скачали Американская история ужасов: Культ через торрент бесплатно!
      Комментировать посты могут только пользователи прошедшие не сложную регистрацию
      Показать сообщения:    

      Американская история ужасов: Культ через торрент
      Скачать бесплатно Американская история ужасов: Культ
      Американская история ужасов: Культ скачать торрент
      Американская история ужасов: Культ смотреть онлайн
      Cкачать фильм Американская история ужасов: Культ бесплатно
      Американская история ужасов: Культ скачать торрент в хорошем качестве
      Американская история ужасов: Культ смотреть онлайн бесплатно в хорошем качестве


      Вы не можете начинать темы
      Вы не можете отвечать на сообщения
      Вы не можете редактировать свои сообщения
      Вы не можете удалять свои сообщения
      Вы не можете голосовать в опросах
      Вы не можете прикреплять файлы к сообщениям
      Вы можете скачивать файлы