1 сезон

3 сезон

iTunes

1

iTunes

DUB Netflix

iTunes

13

1 сезон

RePack

30

Deluxe

pack

Легкие деньги

ВАЖНО

ИГРА 18+

pack

RePack

MK11

RePack

jed

RePack

fifa19

RePack

RDR2

RePack

NEED FOR SPEED™ PAYBACK

4 сезон

9 сезон

Бесстыжие 9 сезон

Все сериалы

все сериалы на PB.wtf

RePack

FAR CRY 5

Anonymous, добрый день, мы не успеваем до 1 числа собрать деньги на оплату серверов, помогите нам пожалуйста в это трудное время. В качестве благодарности мы отключим Вам всю рекламу на сайте (укажите свой ник в строку Ваше имя)!

×
  
Magnet ссылка

СашаТаня [Новогодняя серия] (Александр Потапов) [2018, Ситком, комедия, WEB-DL 1080p] piratbit.org

СашаТаня через торрент piratbit.org

Размер: 835 MB | Добавлен: 2 года 5 мес. назад | Торрент скачан:185 раз
Скачать  

26-12-2018 13:19 СашаТаня Скачать торрент  

СашаТаня
[Новогодняя серия]
Год выпуска: 2018
Страна: Россия
Жанр: Ситком, комедия
Продолжительность: ~ 00:22:00
Перевод: Не требуется
Субтитры: отсутствуют

Режиссер: Александр Потапов

В ролях:

Андрей Гайдулян, Валентина Рубцова, Алексей Климушкин, Елена Бирюкова, Татьяна Орлова, Андрей Лебедев, Ксения Хаирова, Олег Новиков, Сергей Рудзевич, Сергей Мурзин, Андрей Свиридов, Павел Кассинский, Виталий Гогунский, Арарат Кещян, Ёлка, Алексей Гаврилов, Лариса Баранова, Алина Кизиярова-Ланина, Екатерина Шукшина, Владимир Епифанцев

Описание:

Сериал про молодую семью Сергеевых. После окончания института Саша и Таня вместе со своим маленьким сыном Алёшкой решили пожить самостоятельно и сняли квартиру в Южном Бутово. Райончик конечно не из лучших, но зато и цены на жилье тут доступные, ведь Саша не собирается пользоваться миллиардами своего папы. Но Сильвестр Андреевич не собирается так просто отставать от молодых и тем более от своего внука. Поэтому он поселился по соседству, только в просторной и роскошной квартире.

Качество: WEB-DL 1080p
Формат: MKV

Видео: MPEG-4 AVC, ~ 5000 Кбит/с, 1920x1080
Аудио: AC3, 2 ch, 192 Кбит/с
скриншот   скриншот   скриншот  

Общее
Уникальный идентификатор : 180187583250986717328201685890468067359 (0x878EDDC08700DCD69764005D19CEB81F)
Полное имя : E:\SashaTanya.Novogodnjaja.2018.WEB-DL.(1080p).Getty.mkv
Формат : Matroska
Версия формата : Version 4 / Version 2
Размер файла : 835 Мбайт
Продолжительность : 22 м. 28 с.
Режим общего битрейта : Постоянный
Общий поток : 5194 Кбит/сек
Название фильма : SashaTanya.Novogodnjaja.2018.WEB-DL.(1080p).Getty
Дата кодирования : UTC 2018-12-25 17:05:29
Программа кодирования : mkvmerge v7.8.0 ('River Man') 32bit built on Mar 27 2015 16:18:02
Библиотека кодирования : libebml v1.3.1 + libmatroska v1.4.2

Видео
Идентификатор : 1
Формат : AVC
Формат/Информация : Advanced Video Codec
Профиль формата : Baseline@L4
Настройки формата : 4 Ref Frames
Параметр CABAC формата : Нет
Параметр RefFrames формата : 4 кадра
Идентификатор кодека : V_MPEG4/ISO/AVC
Продолжительность : 22 м. 28 с.
Вид битрейта : Постоянный
Битрейт : 5000 Кбит/сек
Ширина : 1920 пикселей
Высота : 1080 пикселей
Соотношение сторон : 16:9
Режим частоты кадров : Постоянный
Частота кадров : 25,000 кадров/сек
Стандарт вещания : PAL
Цветовое пространство : YUV
Субдискретизация насыщенности : 4:2:0
Битовая глубина : 8 бит
Тип развёртки : Прогрессивная
Бит/(Пиксели*Кадры) : 0.096
Размер потока : 787 Мбайт (94%)
Default : Да
Forced : Нет
Цветовой диапазон : Limited
Основные цвета : BT.709
Характеристики трансфера : BT.709
Коэффициенты матрицы : BT.709

Аудио
Идентификатор : 2
Формат : AC-3
Формат/Информация : Audio Coding 3
Идентификатор кодека : A_AC3
Продолжительность : 22 м. 28 с.
Вид битрейта : Постоянный
Битрейт : 192 Кбит/сек
Каналы : 2 канала
Расположение каналов : Front: L R
Частота : 48,0 КГц
Частота кадров : 31,250 кадров/сек (1536 SPF)
Битовая глубина : 16 бит
Метод сжатия : С потерями
Размер потока : 30,9 Мбайт (4%)
ServiceKind/String : Complete Main
Default : Да
Forced : Нет

piratbit.org



Скачать СашаТаня через торрент http://lostpix.com/img/2018-12/26/ue4bzuvgyv86bsa94cpqrl19i.jpg Скачать фильм СашаТаня [Новогодняя серия] через торрент бесплантно в хорошем качестве Описание: Сериал про молодую семью Сергеевых. После окончания института Саша и Таня вместе со своим маленьким сыном Алёшкой решили пожить ... 10 10 6
Info! Золотая раздача, скачанное не засчитывается.
Торрент: Зарегистрирован [2018-12-26 13:19] · скачан: 185 раз
Статус: √ проверено
Размер: 835 MB
Как cкачать? Как скачать СашаТаня через торрент | UTorrent

% Раздел Тема Автор DL S | L
TNT serials [ 58.65 GB ] СашаТаня / Сезон: 1-9 / Серии: 1-200 из 200 [2013-2019 WEB-DLRip] bober100 Скачать
1 | 1
TNT serials [ 6.31 GB ] СашаТаня / Сезон: 10 / Серии: 1-22 из 22 [2021 WEBRip-AVC] bober100 Скачать
1 | 0
TNT serials [ 22.33 GB ] СашаТаня / Сезон: 10 / Серии: 1-22 из 22 [2021 HDTV 1080i] bober100 Скачать
1 | 0
TNT serials [ 6.45 GB ] СашаТаня / Сезон: 10 / Серии: 1-22 из 22 [2021 WEBRip] bober100 Скачать
1 | 0
TNT serials [ 11.2 GB ] СашаТаня / Сезон: 10 / Серии: 1-22 из 22 [2021 WEBRip 720p] bober100 Скачать
1 | 0
TNT serials [ 16.46 GB ] СашаТаня / Сезон: 10 / Серии: 1-22 из 22 [2021 WEBRip 1080p] bober100 Скачать
1 | 0
TNT serials [ 6.68 GB ] СашаТаня / Сезон: 10 / Серии: 1-22 из 22 [2021 SATRip] bober100 Скачать
1 | 0

28-11-2019 20:33  

Отключить всю рекламу на сайте


    Дорогой пользователь! Огромная просьба, поблагодарите релизера, оцените раздачу и оставьте свои комментарий, если Вы скачали СашаТаня через торрент бесплатно! Внесите свою лепту в развитие PiratBit!
    Комментировать посты могут только пользователи прошедшие не сложную регистрацию
    Показать сообщения:    

    СашаТаня через торрент
    Скачать бесплатно СашаТаня
    СашаТаня скачать торрент
    СашаТаня смотреть онлайн
    Cкачать фильм СашаТаня бесплатно
    СашаТаня скачать торрент в хорошем качестве
    СашаТаня смотреть онлайн бесплатно в хорошем качестве


    Вы не можете начинать темы
    Вы не можете отвечать на сообщения
    Вы не можете редактировать свои сообщения
    Вы не можете удалять свои сообщения
    Вы не можете голосовать в опросах
    Вы не можете прикреплять файлы к сообщениям
    Вы можете скачивать файлы