Ссылка на приватное зеркало всего за 1$. Внимание количество ограничено!!!

iTunes

iTunes

iTunes

1

iTunes

iTunes

iTunes

iTunes

iTunes

30
pack

Новость дня

ВАЖНО

!!Акция!!

Alien_RageХит недели

RePack

Resident Evil 21

ИГРА 18+

pack

RePack

jed

!!Акция!!

Alien_Rage

RePack

fifa19

RePack

Assassins Creed: Odyssey

RePack

NEED FOR SPEED™ PAYBACK

4 сезон

9 сезон

Бесстыжие 9 сезон

Все сериалы

все сериалы на PB.wtf

RePack

FAR CRY 5
  

Рэй Донован / Ray Donovan / Сезон: 6 / Серии: 1-12 из 12 (Джон Дал, Майкл Аппендаль, Такер Гейтс) [2018, Драма, криминал, WEB-DL 1080p] [MVO] (NewStudio) piratbit.org

Рэй Донован через торрент piratbit.org

Размер: 29.68 GB | Добавлен: 1 год 2 мес. назад | Торрент скачан:33 раза
Скачать  

28-12-2018 20:01 Рэй Донован Скачать торрент  

Рэй Донован | Ray Donovan
Год выпуска: 2018
Страна: США
Жанр: Драма, криминал
Продолжительность: ~00:55:00
Перевод: Профессиональный (многоголосый закадровый) | NewStudio*
Режиссёр: Джон Дал, Майкл Аппендаль, Такер Гейтс
В ролях: Лив Шрайбер, Паула Малкомсон, Кэтрин Монниг, Пуч Холл, Кэррис Дорси, Девон Бэгби, Джон Войт, Стивен Бауэр, Уильям Стэнфорд Дэвис, Майкл МакГрэйди, Фрэнк Уэйли, Эллиотт Гулд, Октавиус Дж. Джонсон, Эмбир Чилдерс и др.
Описание: Рэй Донован решает любые проблемы богатых и знаменитых людей Лос-Анджелеса, но при этом не может разобраться со своей собственной семьёй...

скриншот  
Качество: WEB-DL 1080p
Формат: MKV
Видео: AVC, 1920x1080 (16:9), 23.976 fps, ~5300 kbps
Аудио №1: AC3, 6 ch, 48 kHz, 384 kbps | NewStudio*
Аудио №2: AC3, 6 ch, 48 kHz, 640 kbps | Original
Субтитры: Русские (Forced), английские (SDH)
* присутствует ненормативная лексика!

Исходник: Ray.Donovan.S06.1080p.AMZN.WEB-DL.DDP5.1.x264-NTb
Релиз от
General
Complete name : D:\Ray_Donovan_(s06)_NewStudio_1080p\Ray.Donovan.s06e01.WEB-DL.1080p.mkv
Format : Matroska
Format version : Version 2
File size : 2.68 GiB
Duration : 59 min 5 s
Overall bit rate : 6 491 kb/s
Encoded date : UTC 2018-11-06 22:19:32
Writing application : mkvmerge v4.9.1 ('Ich will') сборка от Jul 11 2011 23:53:15
Writing library : libebml v1.2.1 + libmatroska v1.1.1

Video
ID : 1
Format : AVC
Format/Info : Advanced Video Codec
Format profile : High@L4
Format settings : CABAC / 4 Ref Frames
Format settings, CABAC : Yes
Format settings, ReFrames : 4 frames
Codec ID : V_MPEG4/ISO/AVC
Duration : 59 min 5 s
Bit rate : 5 338 kb/s
Width : 1 920 pixels
Height : 1 080 pixels
Display aspect ratio : 16:9
Frame rate mode : Constant
Frame rate : 23.976 (24000/1001) FPS
Color space : YUV
Chroma subsampling : 4:2:0
Bit depth : 8 bits
Scan type : Progressive
Bits/(Pixel*Frame) : 0.107
Stream size : 2.20 GiB (82%)
Title : Release by EniaHD
Default : Yes
Forced : No
Color range : Limited
Color primaries : BT.709
Transfer characteristics : BT.709
Matrix coefficients : BT.709

Audio #1
ID : 2
Format : AC-3
Format/Info : Audio Coding 3
Codec ID : A_AC3
Duration : 59 min 5 s
Bit rate mode : Constant
Bit rate : 384 kb/s
Channel(s) : 6 channels
Channel positions : Front: L C R, Side: L R, LFE
Sampling rate : 48.0 kHz
Frame rate : 31.250 FPS (1536 SPF)
Bit depth : 16 bits
Compression mode : Lossy
Stream size : 162 MiB (6%)
Title : NewStudio
Language : Russian
Service kind : Complete Main
Default : Yes
Forced : No

Audio #2
ID : 3
Format : AC-3
Format/Info : Audio Coding 3
Codec ID : A_AC3
Duration : 59 min 5 s
Bit rate mode : Constant
Bit rate : 640 kb/s
Channel(s) : 6 channels
Channel positions : Front: L C R, Side: L R, LFE
Sampling rate : 48.0 kHz
Frame rate : 31.250 FPS (1536 SPF)
Bit depth : 16 bits
Compression mode : Lossy
Stream size : 271 MiB (10%)
Language : English
Service kind : Complete Main
Default : No
Forced : No

Text
ID : 4
Format : UTF-8
Codec ID : S_TEXT/UTF8
Codec ID/Info : UTF-8 Plain Text
Title : SDH
Language : English
Default : No
Forced : No

Menu
00:00:00.000 : en:Studio Logo
00:00:05.426 : en:Previously On
00:01:53.426 : en:Title Sequence
00:02:02.426 : en:Ray hits an all time low
00:09:58.426 : en:Ray seeks solace in a bar
00:16:03.426 : en:Grief changes shape but it never leaves
00:20:35.426 : en:Every choice has a consequence
00:25:33.426 : en:Ray tries to help a friend the only way he knows how
00:29:40.426 : en:Scene 10
00:32:54.426 : en:Scene 11
00:41:55.426 : en:Antoine shows his producers the costumes for Mr. Lucky
00:44:59.426 : en:Ray asks Terry for a favor
00:47:14.426 : en:No matter how hard he tries, Ray can't seem to walk away
00:50:07.426 : en:Things keep going from bad to worse
00:56:01.426 : en:End Credits
00:58:02.426 : en:Next Time
При каждом добавлении создаётся новый торрент. Чтобы начать докачку новой серии, пользователям необходимо сделать следующее:
- остановить скачивание;
- удалить старый торрент у себя из клиента (старые серии удалять не надо);
- скачать новый торрент и запустить его у себя в клиенте вместо старого, при этом указать клиенту путь в старую папку, куда и должно происходить скачивание новых серий.
скриншот  скриншот  скриншот  

piratbit.org



Скачать Рэй Донован через торрент https://b.radikal.ru/b06/1810/2d/adb9c23460a2.png Скачать фильм Рэй Донован через торрент бесплантно в хорошем качестве Описание: Рэй Донован решает любые проблемы богатых и знаменитых людей Лос-Анджелеса, но при этом не может разобраться со своей собственной ... 10 10 6
Info! Серебряная раздача, засчитывается только 50% скачанного.
Торрент: Зарегистрирован [2019-01-18 18:29] · скачан: 33 раз
Статус: √ проверено
Размер: 29.68 GB
Как cкачать? Как скачать Рэй Донован через торрент | qTorrent

% Раздел Тема Автор DL S | L
Рэй Донован [ 8.5 GB ] Рэй Донован / Ray Donovan / Сезон: 6 / Серии: 1-12 из 12 [2018 WEB-DLRip] [MVO] killermax2013 Скачать
1 | 0
Рэй Донован [ 14.81 GB ] Рэй Донован / Ray Donovan / Сезон: 6 / Серии: 1-12 из 12 [2018-2019 WEB-DL 720p] MVO [Amedia] bober100 Скачать
1 | 0
Рэй Донован [ 29.69 GB ] Рэй Донован / Ray Donovan / Сезон: 6 / Серии: 1-12 из 12 [2018 WEB-DL 1080p] [MVO] killermax2013 Скачать
1 | 0
Рэй Донован [ 11.32 GB ] Рэй Донован / Ray Donovan / Сезон: 6 / Серии: 1-12 из 12 [2018 WEB-DL 720p] MVO [Jaskier] bober100 Скачать
1 | 0
Рэй Донован [ 29.73 GB ] Рэй Донован / Ray Donovan / Сезон: 6 / Серии: 1-12 из 12 [2018 WEB-DL 1080p] [MVO] killermax2013 Скачать
1 | 0
Рэй Донован [ 7.8 GB ] Рэй Донован / Ray Donovan / Сезон: 6 / Серии 1-12 из 12 [2018 WEB-DLRip] MVO [NewStudio] GEKADOL Скачать
1 | 0
Рэй Донован [ 7.86 GB ] Рэй Донован / Ray Donovan / Сезон: 6 / Серии: 1-12 из 12 [2018 WEB-DLRip] MVO [Jaskier] bober100 Скачать
1 | 0

28-11-2019 20:33  

Отключить всю рекламу на сайте

    Дорогой пользователь! Огромная просьба, поблагодарите релизера, оцените раздачу и оставьте свои комментарий, если Вы скачали Рэй Донован через торрент бесплатно! Внесите свою лепту в развитие PiratBit!
    Комментировать посты могут только пользователи прошедшие не сложную регистрацию
    Показать сообщения:    

    Рэй Донован через торрент
    Скачать бесплатно Рэй Донован
    Рэй Донован скачать торрент
    Рэй Донован смотреть онлайн
    Cкачать фильм Рэй Донован бесплатно
    Рэй Донован скачать торрент в хорошем качестве
    Рэй Донован смотреть онлайн бесплатно в хорошем качестве


    Вы не можете начинать темы
    Вы не можете отвечать на сообщения
    Вы не можете редактировать свои сообщения
    Вы не можете удалять свои сообщения
    Вы не можете голосовать в опросах
    Вы не можете прикреплять файлы к сообщениям
    Вы можете скачивать файлы