Доктор Стрэндж

Лицензия

Добыча

MVO

Дом дракона

1 сезон

Тор

Лицензия

Мэверик

Лицензия

Там, где раки поют

MVO

Властелин колец

1 сезон

Ultimate

pack

Рекомендуем

30

Repack

ВАЖНО

ВАЖНО

Ghostwire

RePack

jed

RePack

nioh2

RePack

RDR2

RePack

NEED FOR SPEED™ PAYBACK

RePack

скачать торрент

Кинопоиск HD

Острые козырьки 6 сезон

6 сезон

FAR CRY 6

RePack

скачать торрент

Лицензия

скачать торрент

MVO

1

1 сезон

скачать торрент

1 сезон

скачать торрент

Лицензия

  

Скорость (Дмитрий Светозаров) [1983 г., Спортивная драма, SATRip-AVC]

Скорость через торрент piratbit.org

Размер: 1.34 GB | Добавлен: 3 года 9 мес. назад | Торрент скачан:10 раз
Смотреть онлайн Скорость | Скачать   

29-12-2018 20:18 Скорость Скачать торрент  

Скорость
Год выпуска: 1983
Страна: СССР
Жанр: Спортивная драма
Продолжительность: 01:27:34
Субтитры: Отсутствуют

Режиссер: Дмитрий Светозаров



В ролях: Дмитрий Харатьян, Алексей Баталов, Мерле Тальвик-Каппель, Всеволод Шиловский, Ангелина Степанова, Баадур Цуладзе, Николай Фоменко, Андрей Гусев, Анатолий Сливников, Елена Андерегг, Геннадий Богачёв, Ольга Викландт, Ирина Коваленко, Вера Липсток, Никита Джигурда, Николай Ващилин

Описание: Широкоформатный фильм по одноименной повести В.Мусаханова.
Эта история началась с того дня, когда на соревнованиях гоночных автомобилей никому не известный автолюбитель Григорий Яковлев на собранной им самим автомашине опередил именитых спортсменов. Его машина понравилась руководителю конструкторского бюро, который пригласил молодого автогонщика в свою лабораторию...

Качество: SATRip-AVC
Формат: MKV
Видео кодек: AVC
Аудио кодек: AC3
Видео: AVC, 698х350@744x350 , 25,0 fps, 2000 Kbps
Аудио#1: AC3, 2 ch, 192 Кбит/с
скриншот   скриншот   скриншот  
Общее
Уникальный идентификатор : 178779655262449770919245685771370207830 (0x867FB58AF78C51B696EF6C025F1F9A56)
Полное имя : H:СССРСкорость 1983_SATRip-AVC_KORSAR.mkv
Формат : Matroska
Версия формата : Version 2
Размер файла : 1,34 Гбайт
Продолжительность : 1 ч. 27 м.
Общий поток : 2193 Кбит/сек
Дата кодирования : UTC 2018-12-08 22:10:36
Программа кодирования : mkvmerge v5.8.0 ('No Sleep / Pillow') built on Sep 2 2012 15:37:04
Библиотека кодирования : libebml v1.2.3 + libmatroska v1.3.0

Видео
Идентификатор : 1
Формат : AVC
Формат/Информация : Advanced Video Codec
Профиль формата : High@L4.1
Настройки формата : CABAC / 15 Ref Frames
Параметр CABAC формата : Да
Параметр RefFrames формата : 15 кадров
Идентификатор кодека : V_MPEG4/ISO/AVC
Продолжительность : 1 ч. 27 м.
Битрейт : 2000 Кбит/сек
Ширина : 698 пикселей
Высота : 350 пикселей
Соотношение сторон : 2,126
Соотношение сторон в оригинале : 2,127
Режим частоты кадров : Постоянный
Частота кадров : 25,000 кадров/сек
Цветовое пространство : YUV
Субдискретизация насыщенности : 4:2:0
Битовая глубина : 8 бит
Тип развёртки : Прогрессивная
Бит/(Пиксели*Кадры) : 0.327
Размер потока : 1,20 Гбайт (89%)
Библиотека кодирования : x264 core 152 r2851kMod ba24899
Настройки программы : cabac=1 / ref=15 / deblock=1:1:-1 / analyse=0x3:0x133 / me=umh / subme=11 / psy=1 / fade_compensate=0.00 / psy_rd=1.05:0.10 / mixed_ref=1 / me_range=48 / chroma_me=1 / trellis=2 / 8x8dct=1 / cqm=0 / deadzone=21,11 / fast_pskip=0 / chroma_qp_offset=-3 / threads=11 / lookahead_threads=1 / sliced_threads=0 / nr=0 / decimate=0 / interlaced=0 / bluray_compat=0 / constrained_intra=0 / bframes=8 / b_pyramid=2 / b_adapt=2 / b_bias=0 / direct=3 / weightb=1 / open_gop=0 / weightp=2 / keyint=250 / keyint_min=25 / scenecut=40 / intra_refresh=0 / rc_lookahead=40 / rc=2pass / mbtree=0 / bitrate=2000 / ratetol=1.0 / qcomp=0.60 / qpmin=0 / qpmax=39 / qpstep=4 / cplxblur=20.0 / qblur=0.5 / vbv_maxrate=50000 / vbv_bufsize=62500 / nal_hrd=none / filler=0 / ip_ratio=1.25 / pb_ratio=1.30 / aq=1:1.00
Язык : English
Default : Да
Forced : Нет
Цветовой диапазон : Limited
Основные цвета : BT.601 PAL
Характеристики трансфера : BT.470 System B, BT.470 System G
Коэффициенты матрицы : BT.470 System B, BT.470 System G

Аудио
Идентификатор : 2
Формат : AC-3
Формат/Информация : Audio Coding 3
Параметр Endianness формата : Big
Идентификатор кодека : A_AC3
Продолжительность : 1 ч. 27 м.
Вид битрейта : Постоянный
Битрейт : 192 Кбит/сек
Каналы : 2 канала
Расположение каналов : Front: L R
Частота : 48,0 КГц
Частота кадров : 31,250 кадров/сек (1536 SPF)
Битовая глубина : 16 бит
Метод сжатия : С потерями
Размер потока : 120 Мбайт (9%)
Язык : Russian
Default : Да
Forced : Нет



Скачать Скорость через торрент https://pic1.kartinco.top/images/12/djzao.jpg Скачать, смотреть онлайн Скорость бесплантно в хорошем качестве Описание: Широкоформатный фильм по одноименной повести В.Мусаханова.Эта история началась с того дня, когда на соревнованиях гоночных ... 10 10 2
Торрент: Зарегистрирован [2018-12-29 20:18] · скачан: 10 раз
Статус: √ проверено
Размер: 1.34 GB
Как cкачать? Как скачать Скорость через торрент | UTorrent

28-11-2019 20:33  

Отключить вcю реклaмy на сайте

    Дорогой пользователь! Огромная просьба, поблагодарите релизера, оцените раздачу и оставьте свои комментарий, если Вы скачали Скорость через торрент бесплатно!!
    Комментировать посты могут только пользователи прошедшие не сложную регистрацию
    Показать сообщения:    


    Скорость через торрент
    Скачать бесплатно Скорость
    Скорость скачать торрент
    Скорость смотреть онлайн
    Cкачать фильм Скорость бесплатно
    Скорость скачать торрент в хорошем качестве
    Скорость смотреть онлайн бесплатно в хорошем качестве
    Вы не можете начинать темы
    Вы не можете отвечать на сообщения
    Вы не можете редактировать свои сообщения
    Вы не можете удалять свои сообщения
    Вы не можете голосовать в опросах
    Вы не можете прикреплять файлы к сообщениям
    Вы можете скачивать файлы