Достать ножи: Стеклянная луковица

MVO

Добыча

Дубляж

Уэнсдэй

1 сезон

Тор

Дубляж

13 клиническая

1 сезон

Жестокая ночь

MVO

Одни из нас

1 сезон

Deluxe

pack

Рекомендуем

30

Пиратка

ВАЖНО

ВАЖНО

Ghostwire

Пиратка

jed

RePack

nioh2

RePack

RDR2

RePack

NEED FOR SPEED™ PAYBACK

RePack

скачать торрент

Кинопоиск HD

Острые козырьки 6 сезон

6 сезон

FAR CRY 6

RePack

скачать торрент

Лицензия

скачать торрент

MVO

1

1 сезон

скачать торрент

1 сезон

скачать торрент

Лицензия

  

Эверест / Everest (Бальтасар Кормакур ) [2015, триллер, драма, приключения, UHD BDRip 2160p] [SDR] Дубляж (rus, ukr)

Эверест через торрент piratbit.org

Размер: 32.52 GB | Добавлен: 4 года назад | Торрент скачан:55 раз
Смотреть онлайн | Скачать | Поддержите нас   

31-12-2018 08:36 Эверест Скачать торрент  

Эверест / Everest««Самое опасное место на планете»»

Год выпуска: 2015
Страна: США, Великобритания, Исландия
Жанр: триллер, драма, приключения, биография, история, спорт
Продолжительность: 02:01:11
Перевод: Дублированный
Субтитры: Русские, английские, украинские
Режиссер: Бальтасар Кормакур
В ролях:

Джейсон Кларк (Rob Hall), Джош Бролин (Beck Weathers), Джейк Джилленхол (Scott Fischer), Сэм Уортингтон (Guy Cotter), Джон Хоукс (Doug Hansen), Майкл Келли (Jon Krakauer), Ингвар Эггерт Сигюрдссон (Anatoli Boukreev), Кира Найтли (Jan Hall), Эмили Уотсон (Helen Wilton), Робин Райт (Peach Weathers), Мартин Хендерсон (Andy «Harold» Harris), Томас М. Райт (Michael Groom)
Описание:
Эверест - великая неприступная гора, покорить вершину которой мечтают многие профессиональные альпинисты. Одна из экспедиций на ее вершину закончилась настоящей трагедией, однако этот факт не останавливает отважных альпинистов.
Рейтинг:

MPAA: PG-13 - Детям до 13 лет просмотр не желателен
Качество: UHD BDRip 2160p | SDR
Формат: MKV
Видео: MPEG-4 AVC, 32100 Кбит/с, 3840x1600, 23.976 кадр/с
Аудио #1: Русский / AC3 / 48 KHz / 5.1 ch / 448 Kbps (Дубляж - BD Eur)
Аудио #2: Украинский / AC3 / 48 KHz / 2 ch / 192 Kbps (Дубляж)
Аудио #3: Английский / AC3 / 48 KHz / 5.1 ch / 640 Kbps (Original - BD Eur)
Аудио #4: Английский / Atmos / TrueHD / 48 KHz / 7.1 ch / 4928 Kbps (Original - BD Eur)
Навигация по главам: есть
Общее
Уникальный идентификатор : 228470707177611163038810395168717060292 (0xABE1DB8E16FFD189AF037F92C2CAB8C4)
Полное имя : D:\Новая папкаVid\Новая_Мои раздачи\Everest.2015.2160p.BluRay.SDR.8bit.UHD.BDRip.x264.Master5.mkv
Формат : Matroska
Версия формата : Version 4 / Version 2
Размер файла : 32,5 Гбайт
Продолжительность : 2 ч. 1 м.
Режим общего битрейта : Переменный
Общий поток : 38,4 Мбит/сек
Название фильма : Everest.2015.2160p.BluRay.SDR.8bit.UHD.BDRip.x264.Master5
Дата кодирования : UTC 2017-11-01 23:50:20
Программа кодирования : mkvmerge v8.1.0 ('Psychedelic Postcard') 32bit
Библиотека кодирования : libebml v1.3.1 + libmatroska v1.4.2
Обложка : Yes
Attachments : cover.jpg

Видео
Идентификатор : 1
Формат : AVC
Формат/Информация : Advanced Video Codec
Профиль формата : High@L5.1
Параметр CABAC формата : Да
Параметр ReFrames формата : 5 кадров
Идентификатор кодека : V_MPEG4/ISO/AVC
Продолжительность : 2 ч. 1 м.
Битрейт : 32,1 Мбит/сек
Ширина : 3840 пикселей
Высота : 1600 пикселей
Соотношение сторон : 2,40:1
Режим частоты кадров : Постоянный
Частота кадров : 23,976 (24000/1001) кадра/сек
Цветовое пространство : YUV
Субдискретизация насыщенности : 4:2:0
Битовая глубина : 8 бит
Тип развёртки : Прогрессивная
Бит/(Пиксели*Кадры) : 0.218
Размер потока : 27,2 Гбайт (84%)
Заголовок : Everest.2015.2160p.BluRay.SDR.8bit.UHD.BDRip.x264.Master5
Библиотека кодирования : x264 core 148 r2748 97eaef2
Настройки программы : cabac=1 / ref=5 / deblock=1:-1:-1 / analyse=0x3:0x113 / me=umh / subme=10 / psy=1 / psy_rd=1.00:0.15 / mixed_ref=1 / me_range=48 / chroma_me=1 / trellis=2 / 8x8dct=1 / cqm=0 / deadzone=21,11 / fast_pskip=1 / chroma_qp_offset=-3 / threads=50 / lookahead_threads=4 / sliced_threads=0 / nr=0 / decimate=0 / interlaced=0 / bluray_compat=0 / constrained_intra=0 / bframes=3 / b_pyramid=2 / b_adapt=2 / b_bias=0 / direct=3 / weightb=1 / open_gop=0 / weightp=2 / keyint=250 / keyint_min=23 / scenecut=40 / intra_refresh=0 / rc_lookahead=50 / rc=crf / mbtree=1 / crf=18.0 / qcomp=0.60 / qpmin=0 / qpmax=69 / qpstep=4 / ip_ratio=1.40 / aq=1:1.00
Язык : English
Default : Да
Forced : Нет

Аудио #1
Идентификатор : 2
Формат : Atmos / TrueHD
Идентификатор кодека : A_TRUEHD
Продолжительность : 2 ч. 1 м.
Вид битрейта : Переменный
Битрейт : 4928 Кбит/сек
Максимальный битрейт : 8862 Кбит/сек
Каналы : Object Based / 8 каналов
Расположение каналов : Object Based / Front: L C R, Side: L R, Back: L R, LFE
Частота : / 48,0 КГц
Частота кадров : 1200,000 кадров/сек (40 spf)
Метод сжатия : Без потерь
Задержка видео : 32 мс.
Размер потока : 4,17 Гбайт (13%)
Язык : English
Default : Нет
Forced : Нет

Аудио #2
Идентификатор : 3
Формат : AC-3
Формат/Информация : Audio Coding 3
Расширение режима : CM (complete main)
Параметр Endianness формата : Big
Идентификатор кодека : A_AC3
Продолжительность : 2 ч. 1 м.
Вид битрейта : Постоянный
Битрейт : 448 Кбит/сек
Каналы : 6 каналов
Расположение каналов : Front: L C R, Side: L R, LFE
Частота : 48,0 КГц
Частота кадров : 31,250 кадров/сек (1536 spf)
Метод сжатия : С потерями
Размер потока : 388 Мбайт (1%)
Заголовок : Дубляж - BD Eur
Язык : Russian
Default : Да
Forced : Нет

Аудио #3
Идентификатор : 4
Формат : AC-3
Формат/Информация : Audio Coding 3
Расширение режима : CM (complete main)
Параметр Endianness формата : Big
Идентификатор кодека : A_AC3
Продолжительность : 2 ч. 1 м.
Вид битрейта : Постоянный
Битрейт : 192 Кбит/сек
Каналы : 2 канала
Расположение каналов : Front: L R
Частота : 48,0 КГц
Частота кадров : 31,250 кадров/сек (1536 spf)
Метод сжатия : С потерями
Размер потока : 166 Мбайт (0%)
Заголовок : Дубляж
Язык : Ukrainian
Default : Нет
Forced : Нет

Аудио #4
Идентификатор : 5
Формат : AC-3
Формат/Информация : Audio Coding 3
Расширение режима : CM (complete main)
Параметр Endianness формата : Big
Идентификатор кодека : A_AC3
Продолжительность : 2 ч. 1 м.
Вид битрейта : Постоянный
Битрейт : 640 Кбит/сек
Каналы : 6 каналов
Расположение каналов : Front: L C R, Side: L R, LFE
Частота : 48,0 КГц
Частота кадров : 31,250 кадров/сек (1536 spf)
Метод сжатия : С потерями
Размер потока : 555 Мбайт (2%)
Заголовок : Original - BD 3D
Язык : English
Default : Нет
Forced : Нет

Текст #1
Идентификатор : 6
Формат : UTF-8
Идентификатор кодека : S_TEXT/UTF8
Идентификатор кодека/Информация : UTF-8 Plain Text
Продолжительность : 1 ч. 52 м.
Битрейт : 2 бит/сек
Count of elements : 55
Размер потока : 2,08 Кбайт (0%)
Заголовок : Форсированные
Язык : Russian
Default : Да
Forced : Нет

Текст #2
Идентификатор : 7
Формат : UTF-8
Идентификатор кодека : S_TEXT/UTF8
Идентификатор кодека/Информация : UTF-8 Plain Text
Продолжительность : 1 ч. 59 м.
Битрейт : 69 бит/сек
Count of elements : 1590
Размер потока : 61,4 Кбайт (0%)
Заголовок : Полные
Язык : Russian
Default : Нет
Forced : Нет

Текст #3
Идентификатор : 8
Формат : UTF-8
Идентификатор кодека : S_TEXT/UTF8
Идентификатор кодека/Информация : UTF-8 Plain Text
Продолжительность : 1 ч. 26 м.
Битрейт : 0 бит/сек
Count of elements : 4
Размер потока : 51,0 байт (0%)
Заголовок : Форсированные
Язык : Ukrainian
Default : Нет
Forced : Нет

Текст #4
Идентификатор : 9
Формат : UTF-8
Идентификатор кодека : S_TEXT/UTF8
Идентификатор кодека/Информация : UTF-8 Plain Text
Продолжительность : 1 ч. 59 м.
Битрейт : 66 бит/сек
Count of elements : 1601
Размер потока : 58,5 Кбайт (0%)
Заголовок : Полные
Язык : Ukrainian
Default : Нет
Forced : Нет

Текст #5
Идентификатор : 10
Формат : UTF-8
Идентификатор кодека : S_TEXT/UTF8
Идентификатор кодека/Информация : UTF-8 Plain Text
Продолжительность : 1 ч. 50 м.
Битрейт : 57 бит/сек
Count of elements : 1613
Размер потока : 46,2 Кбайт (0%)
Заголовок : Full
Язык : English
Default : Нет
Forced : Нет

Текст #6
Идентификатор : 11
Формат : UTF-8
Идентификатор кодека : S_TEXT/UTF8
Идентификатор кодека/Информация : UTF-8 Plain Text
Продолжительность : 1 ч. 50 м.
Битрейт : 64 бит/сек
Count of elements : 1800
Размер потока : 51,9 Кбайт (0%)
Заголовок : SDH
Язык : English
Default : Нет
Forced : Нет

Меню
00:00:00.000 : en:Chapter 1
00:05:12.145 : en:Chapter 2
00:09:36.075 : en:Chapter 3
00:15:13.162 : en:Chapter 4
00:20:58.423 : en:Chapter 5
00:26:30.714 : en:Chapter 6
00:33:15.118 : en:Chapter 7
00:40:23.754 : en:Chapter 8
00:47:23.382 : en:Chapter 9
00:52:14.589 : en:Chapter 10
00:57:49.174 : en:Chapter 11
01:01:54.794 : en:Chapter 12
01:07:22.079 : en:Chapter 13
01:15:40.577 : en:Chapter 14
01:21:03.900 : en:Chapter 15
01:26:59.589 : en:Chapter 16
01:32:39.136 : en:Chapter 17
01:41:20.449 : en:Chapter 18
01:46:47.651 : en:Chapter 19
01:54:06.464 : en:Chapter 20



Скачать Эверест через торрент https://b.radikal.ru/b05/1812/47/70ba53eb9ae0.png Скачать, смотреть онлайн Эверест бесплантно в хорошем качестве Описание: Эверест - великая неприступная гора, покорить вершину которой мечтают многие профессиональные альпинисты. Одна из экспедиций на ... 10 10 4
Info! Золотая раздача, скачанное не засчитывается.
Торрент: Зарегистрирован [2018-12-31 08:36] · скачан: 55 раз
Статус: √ проверено
Размер: 32.52 GB
Как cкачать? Как скачать Эверест через торрент | UTorrent

% Раздел Тема Автор DL S | L
Ultra HD (UHD: 2K, 4K, 8K) [ 48.68 GB ] Эверест / Everest | Лицензия | 2160p bober100 Скачать
1 | 0
Фильмы (DVD фильмы) [ 7.55 GB ] Эверест / Everest | | 2015, триллер, драма, приключения, биография, история, DVD9 voovaz Скачать
1 | 0
3D Фильмы [ 11.94 GB ] Эверест / Everest | Дубляж | BDRip, Дубляж serega768 Скачать
1 | 0
Фильмы [HD 720p, 1080p] (Хороший звук DUB, MVO) [ 4.37 GB ] Эверест / Everest | Лицензия | 720p от potroks potroks Скачать
1 | 0
Фильмы 2015 [DVDrip, WEB-DLRip, HDrip] [ 2.18 GB ] Эверест / Everest | Лицензия | BDRip-AVC от sokol_ok sokol_ok Скачать
2 | 0
Фильмы (Blu-ray, BD-Remux, HDDVD) [ 25.42 GB ] Эверест / Everest | Лицензия | 1080p, Дубляж Лицензия Russian Mafia Скачать
1 | 0
Фильмы 2015 [DVDrip, WEB-DLRip, HDrip] [ 1.46 GB ] Эверест / Everest | iTunes | DLRip, Дубляж Ворон Скачать
1 | 0

28-11-2019 20:33  


Отключить вcю реклaмy на сайте, в т.ч. и в плеере онлайн просмотра!

31-12-2018 09:40 Эверест Скачать торрент  

Спасибо и с праздником нового года



31-12-2018 10:26 Эверест Скачать торрент  

rayl116rus писал(а):

Спасибо и с праздником нового года

Взаимно



    Дорогой пользователь! Огромная просьба, поблагодарите релизера, оцените раздачу и оставьте свои комментарий, если Вы скачали Эверест через торрент бесплатно!!
    Комментировать посты могут только пользователи прошедшие не сложную регистрацию
    Показать сообщения:    


    Эверест через торрент
    Скачать бесплатно Эверест
    Эверест скачать торрент
    Эверест смотреть онлайн
    Cкачать фильм Эверест бесплатно
    Эверест скачать торрент в хорошем качестве
    Эверест смотреть онлайн бесплатно в хорошем качестве
    Вы не можете начинать темы
    Вы не можете отвечать на сообщения
    Вы не можете редактировать свои сообщения
    Вы не можете удалять свои сообщения
    Вы не можете голосовать в опросах
    Вы не можете прикреплять файлы к сообщениям
    Вы можете скачивать файлы
    Эверест / Everest [2015, триллер, драма, приключения, UHD BDRip 2160p] [SDR] Дубляж смотреть онлайн, скачать торрент picoco.icu