2 сезон

iTunes

WEBRip

1

2 сезон

iTunes

1 сезон

1 сезон

RePack

30

Новинка

ВАЖНО

ИГРА 18+

pack

RePack

MK11
pack

Легкие деньги

RePack

jed

RePack

fifa19

RePack

RDR2

RePack

NEED FOR SPEED™ PAYBACK

4 сезон

9 сезон

Бесстыжие 9 сезон

Все сериалы

все сериалы на PB.wtf

RePack

FAR CRY 5

Anonymous, доброй ночи, мы не успеваем собрать деньги на оплату серверов за февраль, помогите нам пожалуйста в это трудное время. В качестве благодарности мы отключим Вам всю рекламу на сайте (укажите свой ник в строку Ваше имя)!

×
  
Magnet ссылка

DZIDZIO Перший Раз (Тарас Дронь, Михайло Хома) [2018, комедия, WEBRip 1080p] piratbit.org

DZIDZIO Перший Раз через торрент piratbit.org

Размер: 1.68 GB | Добавлен: 2 года 2 мес. назад | Торрент скачан:85 раз
Скачать  

01-01-2019 08:33 DZIDZIO Перший Раз Скачать торрент  

DZIDZIO Перший Раз
Год выпуска: 2018
Страна: Украина / DzidzioFilm
Жанр: комедия
Продолжительность: 01:39:00
Перевод: Оригинал [украинский]

Режиссер: Тарас Дронь, Михайло Хома

В ролях: Михаил Хома, Сергей Либа, Анна Тихомирова, Ольга Кияшко, Нина Набока, Руслан Никоненко, Владимир Карковский, Василий Ващук, Надежда Кугай, Галина Хома

Описание: По сюжету, 34-летний бородатый холостяк Дзидзьо живет на Львовщине на деньги что присылает ему мать. Она мечтает женить сына, но он опаздывает на самолет в Португалию, где мать подыскала ему девушку. Разгневанная выгоняет сына из львовской квартиры и отправляет в дом деда. Дзидзьо понимает, что в делах любви не поможет ни мама, ни друзья ...

rating

Качество: WEBRip 1080p
Формат: MP4
Аудио: AAC
Видео: 1920х800, 24 fps, ~2291 kbps avg
Аудио: 48 kHz, AAC, 2 ch, ~128 kbps
D:\TORRENT\DZIDZIO Перший раз.mp4
General
Complete name : D:\TORRENT\DZIDZIO Перший раз.mp4
Format : MPEG-4
Format profile : Base Media
Codec ID : isom
File size : 1.68 GiB
Duration : 1h 39mn
Overall bit rate mode : Variable
Overall bit rate : 2 423 Kbps
Encoded date : UTC 2018-12-27 18:25:07
Tagged date : UTC 2018-12-27 18:25:07
Video #1
ID : 1
Format : AVC
Format/Info : Advanced Video Codec
Format profile : Main@L4.0
Format settings, CABAC : Yes
Format settings, ReFrames : 4 frames
Format settings, GOP : M=4, N=24
Codec ID : avc1
Codec ID/Info : Advanced Video Coding
Duration : 1h 39mn
Bit rate : 2 291 Kbps
Maximum bit rate : 8 641 Kbps
Width : 1 920 pixels
Height : 800 pixels
Display aspect ratio : 2.40:1
Frame rate mode : Constant
Frame rate : 24.000 fps
Color space : YUV
Chroma subsampling : 4:2:0
Bit depth : 8 bits
Scan type : Progressive
Bits/(Pixel*Frame) : 0.062
Stream size : 1.58 GiB (95%)
Writing library : x264 core 132
Encoding settings : cabac=1 / ref=1 / deblock=1:0:0 / analyse=0x1:0x1 / me=dia / subme=1 / psy=1 / psy_rd=1.00:0.00 / mixed_ref=0 / me_range=16 / chroma_me=1 / trellis=0 / 8x8dct=0 / cqm=0 / deadzone=21,11 / fast_pskip=1 / chroma_qp_offset=0 / threads=12 / lookahead_threads=2 / sliced_threads=0 / nr=0 / decimate=1 / interlaced=0 / bluray_compat=0 / constrained_intra=0 / bframes=3 / b_pyramid=2 / b_adapt=1 / b_bias=0 / direct=1 / weightb=1 / open_gop=0 / weightp=1 / keyint=24 / keyint_min=2 / scenecut=40 / intra_refresh=0 / rc=crf / mbtree=0 / crf=27.0 / qcomp=0.60 / qpmin=0 / qpmax=69 / qpstep=4 / ip_ratio=1.40 / pb_ratio=1.30 / aq=1:1.00
Tagged date : UTC 2018-12-27 18:25:27
Audio #2
ID : 2
Format : AAC
Format/Info : Advanced Audio Codec
Format profile : LC
Codec ID : 40
Duration : 1h 39mn
Bit rate mode : Variable
Bit rate : 128 Kbps
Maximum bit rate : 138 Kbps
Channel(s) : 2 channels
Channel positions : Front: L R
Sampling rate : 48.0 KHz
Compression mode : Lossy
Stream size : 90.8 MiB (5%)
Encoded date : UTC 2018-12-27 18:25:26
Tagged date : UTC 2018-12-27 18:25:27
скриншот  скриншот  скриншот  
piratbit.org



Скачать DZIDZIO Перший Раз через торрент https://i106.fastpic.ru/big/2018/1228/2d/5460cfe3bf1779922407474f80e4752d.jpg Скачать фильм DZIDZIO Перший Раз через торрент бесплантно в хорошем качестве Описание: По сюжету, 34-летний бородатый холостяк Дзидзьо живет на Львовщине на деньги что присылает ему мать. Она мечтает женить сына, но ... 7.5 10 8
Торрент: Зарегистрирован [2019-01-01 08:33] · скачан: 85 раз
Статус: T временная
Размер: 1.68 GB
Как cкачать? Как скачать DZIDZIO Перший Раз через торрент | UTorrent

% Раздел Тема Автор DL S | L
T Фильмы с украинским озвучиванием [ 1.34 GB ] DZIDZIO Перший Раз [2018 WEBRip] killermax2013 Скачать
1 | 0


Последний раз редактировалось: killermax2013 (2019-01-01 15:36), всего редактировалось 3 раз(а)

28-11-2019 20:33  

Отключить всю рекламу на сайте


01-01-2019 09:13 DZIDZIO Перший Раз Скачать торрент  

Спасибо заценим)piratbit.org



    Дорогой пользователь! Огромная просьба, поблагодарите релизера, оцените раздачу и оставьте свои комментарий, если Вы скачали DZIDZIO Перший Раз через торрент бесплатно! Внесите свою лепту в развитие PiratBit!
    Комментировать посты могут только пользователи прошедшие не сложную регистрацию
    Показать сообщения:    

    DZIDZIO Перший Раз через торрент
    Скачать бесплатно DZIDZIO Перший Раз
    DZIDZIO Перший Раз скачать торрент
    DZIDZIO Перший Раз смотреть онлайн
    Cкачать фильм DZIDZIO Перший Раз бесплатно
    DZIDZIO Перший Раз скачать торрент в хорошем качестве
    DZIDZIO Перший Раз смотреть онлайн бесплатно в хорошем качестве


    Вы не можете начинать темы
    Вы не можете отвечать на сообщения
    Вы не можете редактировать свои сообщения
    Вы не можете удалять свои сообщения
    Вы не можете голосовать в опросах
    Вы не можете прикреплять файлы к сообщениям
    Вы можете скачивать файлы