Достать ножи: Стеклянная луковица

MVO

Добыча

Дубляж

Уэнсдэй

1 сезон

Тор

Дубляж

13 клиническая

1 сезон

Жестокая ночь

MVO

Одни из нас

1 сезон

Deluxe

pack

Рекомендуем

30

Пиратка

ВАЖНО

ВАЖНО

Ghostwire

Пиратка

jed

RePack

nioh2

RePack

RDR2

RePack

NEED FOR SPEED™ PAYBACK

RePack

скачать торрент

Кинопоиск HD

Острые козырьки 6 сезон

6 сезон

FAR CRY 6

RePack

скачать торрент

Лицензия

скачать торрент

MVO

1

1 сезон

скачать торрент

1 сезон

скачать торрент

Лицензия

  

Мег: Монстр глубины / The Meg (Джон Тёртлтауб) [2018, ужасы, фантастика, боевик, триллер, UHD BDRemux 2160p] [Dolby Vision TV] Дубляж [Лицензия]

Мег: Монстр глубины через торрент piratbit.org

Размер: 38.28 GB | Добавлен: 4 года 1 мес. назад | Торрент скачан:105 раз
Смотреть онлайн | Скачать | Поддержите нас   

04-01-2019 05:27 Мег: Монстр глубины Скачать торрент  

Мег: Монстр глубины / The Meg
Год выпуска: 2018
Страна: Китай, США
Жанр: ужасы, фантастика, боевик, триллер
Продолжительность: 01:53:11
Перевод: Дублированный | Лицензия
Субтитры: отсутствуют

Режиссер: Джон Тёртлтауб

rating

В ролях:

Джейсон Стэйтем (Jonas Taylor), Ли Бинбин (Suyin), Рэйн Уилсон (Morris), Клифф Кёртис (Mac), Уинстон Чао (Zhang), Шуя Софиа Цай (Meiying), Руби Роуз (Jaxx), Пейдж Кеннеди (DJ), Роберт Тейлор (Heller), Оулавюр Дарри Оулафссон (The Wall), Джессика МакНэми (Lori), Маси Ока (Toshi)
Описание:

Глубоководный батискаф, осуществляющий наблюдение в рамках международной программы по изучению подводной жизни, был атакован огромным существом, которое все считали давно вымершим. Неисправный аппарат теперь лежит на дне глубочайшей впадины Тихого океана... с оказавшимся в ловушке экипажем. Их время на исходе. Китайская океанограф-новатор Суинь вопреки желанию своей дочери зовет спасателя-подводника Джонаса Тейлора, чтобы тот помог спасти команду и океан от невиданной угрозы - доисторической 23-метровой акулы, мегалодона. Никто и подумать не мог, что много лет назад Тейлор уже сталкивался с этим чудовищным созданием.

Качество: UHD BDRemux 2160p | Dolby Vision TV
Формат: MP4

Видео: HEVC HDR, 47.9 Mбит/с, 3840x2160, 23.976 кадр/с
Аудио: 48 kHz, AC3, 5.1, 448 Kbps | Дублированный | RUS |
Данный вид релизов (контейнер MP4) предназначен для встроенного в ТВ (соответственно, с поддержкой DV) плеер.
Т.Е. Можно использовать как USB flash/HDD, так и DLNA / Plex - подобные сервисы/программы. дополнительный-внешний плеер не обязателен.

Внимание!
На моделях LG 2016 возможны сюрпризы "через раз", 2017-2018 должно идти без сюрпризов )
скриншот  скриншот  скриншот  скриншот  скриншот  

Общее
Полное имя : D:\The.Meg.2018.UHD.BDRemux.2160p.DV.IVA.RUS.ExKinoRay.mp4
Формат : MPEG-4
Профиль формата : Base Media / Version 2
Идентификатор кодека : mp42 (mp42/dby1/isom)
Размер файла : 38,3 Гбайт
Продолжительность : 1 ч. 53 м.
Общий поток : 48,4 Мбит/сек
Дата кодирования : UTC 2019-01-03 21:39:05
Дата пометки : UTC 2019-01-03 21:39:05

Видео #1
Идентификатор : 1
Формат : HEVC
Формат/Информация : High Efficiency Video Coding
Профиль формата : Main 10@L5.1@High
Идентификатор кодека : hev1
Идентификатор кодека/Информация : High Efficiency Video Coding
Продолжительность : 1 ч. 53 м.
Битрейт : 47,9 Мбит/сек
Ширина : 3840 пикселей
Высота : 2160 пикселей
Соотношение сторон : 16:9
Режим частоты кадров : Постоянный
Частота кадров : 23,976 (24000/1001) кадра/сек
Цветовое пространство : YUV
Субдискретизация насыщенности : 4:2:0 (Type 2)
Битовая глубина : 10 бит
Бит/(Пиксели*Кадры) : 0.241
Размер потока : 37,9 Гбайт (99%)
Default : Нет
Дата кодирования : UTC 2019-01-03 21:39:05
Дата пометки : UTC 2019-01-03 21:39:05
Цветовой диапазон : Limited
Основные цвета : BT.2020
Характеристики трансфера : SMPTE ST 2084
Коэффициенты матрицы : BT.2020 non-constant
MasteringDisplay_ColorPrimaries : R: x=0.680000 y=0.320000, G: x=0.265000 y=0.690000, B: x=0.150000 y=0.060000, White point: x=0.312700 y=0.329000
MasteringDisplay_Luminance : min: 0.0050 cd/m2, max: 4000.0000 cd/m2
MaxCLL : 4000 cd/m2
MaxFALL : 1193 cd/m2

Видео #2
Идентификатор : 2
Формат : HEVC
Формат/Информация : High Efficiency Video Coding
Профиль формата : Main 10@L5.1@High
Идентификатор кодека : dvhe
Продолжительность : 1 ч. 53 м.
Битрейт : 63,5 Кбит/сек
Ширина : 1920 пикселей
Высота : 1080 пикселей
Соотношение сторон : 16:9
Режим частоты кадров : Постоянный
Частота кадров : 23,976 (24000/1001) кадра/сек
Цветовое пространство : YUV
Субдискретизация насыщенности : 4:2:0 (Type 2)
Битовая глубина : 10 бит
Бит/(Пиксели*Кадры) : 0.001
Размер потока : 51,4 Мбайт (0%)
Default : Нет
Дата кодирования : UTC 2019-01-03 21:39:05
Дата пометки : UTC 2019-01-03 21:39:05
Цветовой диапазон : Limited
Основные цвета : BT.2020
Характеристики трансфера : SMPTE ST 2084
Коэффициенты матрицы : BT.2020 non-constant
MasteringDisplay_ColorPrimaries : R: x=0.680000 y=0.320000, G: x=0.265000 y=0.690000, B: x=0.150000 y=0.060000, White point: x=0.312700 y=0.329000
MasteringDisplay_Luminance : min: 0.0050 cd/m2, max: 4000.0000 cd/m2

Аудио
Идентификатор : 3
Формат : AC-3
Формат/Информация : Audio Coding 3
Расширение режима : CM (complete main)
Параметр Endianness формата : Big
Идентификатор кодека : ac-3
Продолжительность : 1 ч. 53 м.
Вид битрейта : Постоянный
Битрейт : 448 Кбит/сек
Каналы : 6 каналов
Расположение каналов : Front: L C R, Side: L R, LFE
Частота : 48,0 КГц
Частота кадров : 31,250 кадров/сек (1536 spf)
Битовая глубина : 16 бит
Метод сжатия : С потерями
Размер потока : 363 Мбайт (1%)
Язык : Russian
Default : Нет
Дата кодирования : UTC 2019-01-03 21:39:05
Дата пометки : UTC 2019-01-03 21:39:05




Скачать Мег: Монстр глубины через торрент https://st-kp-yandex-net.translate.goog/images/film_iphone/iphone360_918627.jpg Скачать, смотреть онлайн Мег: Монстр глубины бесплантно в хорошем качестве Описание:Глубоководный батискаф, осуществляющий наблюдение в рамках международной программы по изучению подводной жизни, был атакован ... 10 10 5
Торрент: Зарегистрирован [2019-01-04 05:27] · скачан: 105 раз
Статус: √ проверено
Размер: 38.28 GB
Как cкачать? Как скачать Мег: Монстр глубины через торрент | UTorrent

% Раздел Тема Автор DL S | L
Фильмы [HD 720p, 1080p] (Хороший звук DUB, MVO) [ 4.61 GB ] Мег: Монстр глубины / The Meg | iTunes | 1080p, (10bit bober100 Скачать
1 | 0
Фильмы 2018 [DVDrip, WEB-DLRip, HDrip] (DUB, MVO) [ 4.18 GB ] Мег: Монстр глубины / The Meg | MVO | BDRip-AVC, Dub, MVO, AVO morfyi Скачать
1 | 0
Фильмы (HD 720p, 1080p) (48-60 fps) [ 5.05 GB ] Мег: Монстр глубины / The Meg | Лицензия | 720p 60 fps от еnvy / NNNB еnvy Скачать
9 | 0
Фильмы 2018 [DVDrip, WEB-DLRip, HDrip] (DUB, MVO) [ 1.45 GB ] Мег: Монстр глубины / The Meg | Лицензия | BDRip-AVC Enigma2010 Скачать
3 | 0
Фильмы 2018 [DVDrip, WEB-DLRip, HDrip] (DUB, MVO) [ 2.19 GB ] Мег: Монстр глубины / The Meg | Лицензия | BDRip Twi7ter Скачать
3 | 0
3D Фильмы [ 11.28 GB ] Мег: Монстр глубины 3Д / The Meg 3D | Лицензия | 1080p bober100 Скачать
1 | 0
3D Фильмы [ 15.41 GB ] Мег: Монстр глубины в 3Д / The Meg 3D | | 1080p serega768 Скачать
1 | 0

28-11-2019 20:33  


Отключить вcю реклaмy на сайте, в т.ч. и в плеере онлайн просмотра!

    Дорогой пользователь! Огромная просьба, поблагодарите релизера, оцените раздачу и оставьте свои комментарий, если Вы скачали Мег: Монстр глубины через торрент бесплатно!!
    Комментировать посты могут только пользователи прошедшие не сложную регистрацию
    Показать сообщения:    


    Мег: Монстр глубины через торрент
    Скачать бесплатно Мег: Монстр глубины
    Мег: Монстр глубины скачать торрент
    Мег: Монстр глубины смотреть онлайн
    Cкачать фильм Мег: Монстр глубины бесплатно
    Мег: Монстр глубины скачать торрент в хорошем качестве
    Мег: Монстр глубины смотреть онлайн бесплатно в хорошем качестве
    Вы не можете начинать темы
    Вы не можете отвечать на сообщения
    Вы не можете редактировать свои сообщения
    Вы не можете удалять свои сообщения
    Вы не можете голосовать в опросах
    Вы не можете прикреплять файлы к сообщениям
    Вы можете скачивать файлы
    Мег: Монстр глубины / The Meg [2018, ужасы, фантастика, боевик, триллер, UHD BDRemux 2160p] [Dolby Vision TV] Дубляж [Лицензия] смотреть онлайн, скачать торрент picoco.icu