2 сезон

iTunes

WEBRip

1

2 сезон

iTunes

1 сезон

1 сезон

RePack

30

Новинка

ВАЖНО

ИГРА 18+

pack

RePack

MK11
pack

Легкие деньги

RePack

jed

RePack

fifa19

RePack

RDR2

RePack

NEED FOR SPEED™ PAYBACK

4 сезон

9 сезон

Бесстыжие 9 сезон

Все сериалы

все сериалы на PB.wtf

RePack

FAR CRY 5

Anonymous, добрый вечер, мы не успеваем собрать деньги на оплату серверов за февраль, помогите нам пожалуйста в это трудное время. В качестве благодарности мы отключим Вам всю рекламу на сайте (укажите свой ник в строку Ваше имя)!

×
  
Magnet ссылка

Червонный / Червоний (Заза Буадзе) [2017, Драма, биография, история, WEB-DLRip-AVC] [rus, ukr] - ExKinoRay piratbit.org

Червонный через торрент piratbit.org

Размер: 1.76 GB | Добавлен: 2 года 1 мес. назад | Торрент скачан:41 раз
Скачать  

05-01-2019 02:58 Червонный Скачать торрент  

Название: Червонный
Оригинальное название: Червоний
Год выпуска: 2017
Жанр: Драма, биография, история
Режиссер: Заза Буадзе
В ролях: Николай Береза, Игорь Колтовский, Олег Шульга, Любовь Тищенко, Александр Мавриц, Олег Стефан, Владимир Шпудейко, Борис Орлов, Виктор Жданов, Валерий Швец, Андрей Ершов, Юрий Гончаров, Евгений Черников, Яков Ткаченко, Владимир Беляев, Евгений Меркулов, Леонид Заславский, Владислав Воронин, Владимир Канивец, Павел Юров, Вадим Нестерчук

Описание:
Сюжет ленты рассказывает о двух украинцах, одновременно воевавших за разные идеалы. Судьба свела их в одном лагере, теперь они на каторге: украинский повстанец Даниил Червонный и советский летчик Виктор Гуров. Червонный — с запада Украины. Гуров — с востока. Но родина у них одна, несмотря на различие в идеалах. Поняв это, двое украинских заключенных сообща пытаются противостоять репрессиям начальника лагеря и делают отчаянную, но отважную попытку вырваться на свободу, подняв в лагере настоящее восстание..



Выпущено: Украина, Insightmedia Producing Center, Одеська кіностудія
Продолжительность: 01:52:38
Язык: Украинский, русский

БЕЗ КАКОЙ-ЛИБО РЕКЛАМЫ!

Формат: MKV
Качество: WEB-DLRip-AVC
Видео: 1024x576 (16:9), 24.000 fps, MPEG-4 AVC 2043 kbps avg, 0.144 bit/pixel
Аудио: AC3, 2/0 ch, 192 Кбит/сек, CBR, 48,0 КГц
General
Unique ID : 186028372441390245840140475302216261058 (0x8BF3C2E47E97F4B98C8837724590DDC2)
Complete name : D:\Chervoniy.2017.WEB-DLRip.AVC.mkv
Format : Matroska
Format version : Version 2
File size : 1.76 GiB
Duration : 1 h 52 min
Overall bit rate : 2 233 kb/s
Movie name : Червонный (2018) from ExKinoRay
Encoded date : UTC 2019-01-05 02:23:42
Writing application : mkvmerge v5.6.0 ('Kenya Kane') built on May 27 2012 16:44:04
Writing library : libebml v1.2.3 + libmatroska v1.3.0

Video
ID : 1
Format : AVC
Format/Info : Advanced Video Codec
Format profile : High@L4.1
Format settings, CABAC : Yes
Format settings, ReFrames : 12 frames
Codec ID : V_MPEG4/ISO/AVC
Duration : 1 h 52 min
Bit rate : 2 043 kb/s
Width : 1 024 pixels
Height : 576 pixels
Display aspect ratio : 16:9
Frame rate mode : Constant
Frame rate : 24.000 FPS
Color space : YUV
Chroma subsampling : 4:2:0
Bit depth : 8 bits
Scan type : Progressive
Bits/(Pixel*Frame) : 0.144
Stream size : 1.57 GiB (89%)
Title : Enigma
Writing library : x264 core 152 r2851 ba24899
Encoding settings : cabac=1 / ref=12 / deblock=1:-2:-2 / analyse=0x3:0x113 / me=umh / subme=10 / psy=1 / psy_rd=1.05:0.10 / mixed_ref=1 / me_range=32 / chroma_me=1 / trellis=2 / 8x8dct=1 / cqm=0 / deadzone=21,11 / fast_pskip=0 / chroma_qp_offset=-3 / threads=12 / lookahead_threads=3 / sliced_threads=0 / nr=0 / decimate=0 / interlaced=0 / bluray_compat=0 / constrained_intra=0 / bframes=10 / b_pyramid=2 / b_adapt=2 / b_bias=0 / direct=3 / weightb=1 / open_gop=0 / weightp=2 / keyint=240 / keyint_min=24 / scenecut=40 / intra_refresh=0 / rc=2pass / mbtree=0 / bitrate=2043 / ratetol=1.0 / qcomp=0.60 / qpmin=0 / qpmax=51 / qpstep=4 / cplxblur=20.0 / qblur=0.5 / ip_ratio=1.40 / pb_ratio=1.30 / aq=1:1.00
Language : English
Default : Yes
Forced : No
Color range : Limited
Color primaries : BT.709
Transfer characteristics : BT.709
Matrix coefficients : BT.709

Audio
ID : 2
Format : AC-3
Format/Info : Audio Coding 3
Mode extension : CM (complete main)
Format settings, Endianness : Big
Codec ID : A_AC3
Duration : 1 h 52 min
Bit rate mode : Constant
Bit rate : 192 kb/s
Channel(s) : 2 channels
Channel positions : Front: L R
Sampling rate : 48.0 kHz
Frame rate : 31.250 FPS (1536 spf)
Compression mode : Lossy
Stream size : 155 MiB (9%)
Language : Russian
Default : Yes
Forced : No


Релиз от:

Автор релиза: piratbit.org



Скачать Червонный через торрент http://img12.lostpic.net/2018/04/04/2e3cddb66265b3474ec5efd54380349f.jpg Скачать фильм Червонный через торрент бесплантно в хорошем качестве Описание:Сюжет ленты рассказывает о двух украинцах, одновременно воевавших за разные идеалы. Судьба свела их в одном лагере, теперь они на ... 10 10 3
Info! Золотая раздача, скачанное не засчитывается.
Торрент: Зарегистрирован [2019-01-05 02:58] · скачан: 41 раз
Статус: √ проверено
Размер: 1.76 GB
Как cкачать? Как скачать Червонный через торрент | UTorrent

28-11-2019 20:33  

Отключить всю рекламу на сайте

    Дорогой пользователь! Огромная просьба, поблагодарите релизера, оцените раздачу и оставьте свои комментарий, если Вы скачали Червонный через торрент бесплатно! Внесите свою лепту в развитие PiratBit!
    Комментировать посты могут только пользователи прошедшие не сложную регистрацию
    Показать сообщения:    

    Червонный через торрент
    Скачать бесплатно Червонный
    Червонный скачать торрент
    Червонный смотреть онлайн
    Cкачать фильм Червонный бесплатно
    Червонный скачать торрент в хорошем качестве
    Червонный смотреть онлайн бесплатно в хорошем качестве


    Вы не можете начинать темы
    Вы не можете отвечать на сообщения
    Вы не можете редактировать свои сообщения
    Вы не можете удалять свои сообщения
    Вы не можете голосовать в опросах
    Вы не можете прикреплять файлы к сообщениям
    Вы можете скачивать файлы