Достать ножи: Стеклянная луковица

MVO

Добыча

Дубляж

Уэнсдэй

1 сезон

Тор

Дубляж

13 клиническая

1 сезон

Жестокая ночь

MVO

Одни из нас

1 сезон

Deluxe

pack

Рекомендуем

30

Пиратка

ВАЖНО

ВАЖНО

Ghostwire

Пиратка

jed

RePack

nioh2

RePack

RDR2

RePack

NEED FOR SPEED™ PAYBACK

RePack

скачать торрент

Кинопоиск HD

Острые козырьки 6 сезон

6 сезон

FAR CRY 6

RePack

скачать торрент

Лицензия

скачать торрент

MVO

1

1 сезон

скачать торрент

1 сезон

скачать торрент

Лицензия

  

Веном / Venom (Рубен Фляйшер) [2018, ужасы, фантастика, боевик, триллер, UHD BDRemux 2160p] [Dolby Vision TV] Дубляж [Лицензия]

Веном через торрент piratbit.org

Размер: 44.01 GB | Добавлен: 4 года 1 мес. назад | Торрент скачан:114 раз
Смотреть онлайн | Скачать | Поддержите нас   

05-01-2019 06:49 Веном Скачать торрент  

Веном / Venom Год выпуска: 2018
Страна: США
Жанр: ужасы, фантастика, боевик, триллер
Продолжительность: 01:52:08
Перевод: Дублированный | Лицензия
Субтитры: Русские

Режиссер: Рубен Фляйшер

rating

В ролях:

Том Харди, Мишель Уильямс, Марчелла Браджио, Вуди Харрельсон, Дженни Слейт, Риз Ахмед, Мак Брандт, Рон Сепас Джонс, Мишель Ли, Мелора Уолтерс

Описание:

Что если в один прекрасный день в тебя вселяется существо-симбиот, которое наделяет тебя сверхчеловеческими способностями? Вот только Веном - симбиот совсем недобрый, и договориться с ним невозможно. Хотя нужно ли договариваться?.. Ведь в какой-то момент ты понимаешь, что быть плохим вовсе не так уж и плохо. Так даже веселее. В мире и так слишком много супергероев! Мы - Веном!

Качество: UHD BDRemux 2160p | Dolby Vision TV
Формат: MP4

Видео: HEVC HDR, 53456 Kбит/с, 3840x2160
Аудио: 48 kHz, AC3, 5.1, 640 Kbps | Дублированный | RUS |
Данный вид релизов (контейнер MP4) предназначен для встроенного в ТВ (соответственно, с поддержкой DV) плеер.
Т.Е. Можно использовать как USB flash/HDD, так и DLNA / Plex - подобные сервисы/программы. дополнительный-внешний плеер не обязателен.

Внимание!
На моделях LG 2016 возможны сюрпризы "через раз", 2017-2018 должно идти без сюрпризов )
скриншот  скриншот  скриншот  

Общее
Полное имя : D:\Venom.2018.UHD.BDRemux.2160p.DV.IVA.RUS.ExKinoRay.mp4
Формат : MPEG-4
Профиль формата : Base Media / Version 2
Идентификатор кодека : mp42 (mp42/dby1/isom)
Размер файла : 44,0 Гбайт
Продолжительность : 1 ч. 52 м.
Общий поток : 56,2 Мбит/сек
Дата кодирования : UTC 2019-01-04 18:41:27
Дата пометки : UTC 2019-01-04 18:41:27

Видео #1
Идентификатор : 1
Формат : HEVC
Формат/Информация : High Efficiency Video Coding
Профиль формата : Main 10@L5.1@High
Идентификатор кодека : hev1
Идентификатор кодека/Информация : High Efficiency Video Coding
Продолжительность : 1 ч. 52 м.
Битрейт : 53,5 Мбит/сек
Ширина : 3840 пикселей
Высота : 2160 пикселей
Соотношение сторон : 16:9
Режим частоты кадров : Постоянный
Частота кадров : 23,976 (24000/1001) кадра/сек
Цветовое пространство : YUV
Субдискретизация насыщенности : 4:2:0 (Type 2)
Битовая глубина : 10 бит
Бит/(Пиксели*Кадры) : 0.269
Размер потока : 41,9 Гбайт (95%)
Default : Нет
Дата кодирования : UTC 2019-01-04 18:41:27
Дата пометки : UTC 2019-01-04 18:41:27
Цветовой диапазон : Limited
Основные цвета : BT.2020
Характеристики трансфера : SMPTE ST 2084
Коэффициенты матрицы : BT.2020 non-constant
MasteringDisplay_ColorPrimaries : R: x=0.680000 y=0.320000, G: x=0.265000 y=0.690000, B: x=0.150000 y=0.060000, White point: x=0.312700 y=0.329000
MasteringDisplay_Luminance : min: 0.0050 cd/m2, max: 4000.0000 cd/m2
MaxCLL : 3903 cd/m2
MaxFALL : 1076 cd/m2

Видео #2
Идентификатор : 2
Формат : HEVC
Формат/Информация : High Efficiency Video Coding
Профиль формата : Main 10@L5.1@High
Идентификатор кодека : dvhe
Продолжительность : 1 ч. 52 м.
Битрейт : 2086 Кбит/сек
Ширина : 1920 пикселей
Высота : 1080 пикселей
Соотношение сторон : 16:9
Режим частоты кадров : Постоянный
Частота кадров : 23,976 (24000/1001) кадра/сек
Цветовое пространство : YUV
Субдискретизация насыщенности : 4:2:0 (Type 2)
Битовая глубина : 10 бит
Бит/(Пиксели*Кадры) : 0.042
Размер потока : 1,63 Гбайт (4%)
Default : Нет
Дата кодирования : UTC 2019-01-04 18:41:27
Дата пометки : UTC 2019-01-04 18:41:27
Цветовой диапазон : Limited
Основные цвета : BT.2020
Характеристики трансфера : SMPTE ST 2084
Коэффициенты матрицы : BT.2020 non-constant
MasteringDisplay_ColorPrimaries : R: x=0.680000 y=0.320000, G: x=0.265000 y=0.690000, B: x=0.150000 y=0.060000, White point: x=0.312700 y=0.329000
MasteringDisplay_Luminance : min: 0.0050 cd/m2, max: 4000.0000 cd/m2

Аудио
Идентификатор : 3
Формат : AC-3
Формат/Информация : Audio Coding 3
Расширение режима : CM (complete main)
Параметр Endianness формата : Big
Идентификатор кодека : ac-3
Продолжительность : 1 ч. 52 м.
Вид битрейта : Постоянный
Битрейт : 640 Кбит/сек
Каналы : 6 каналов
Расположение каналов : Front: L C R, Side: L R, LFE
Частота : 48,0 КГц
Частота кадров : 31,250 кадров/сек (1536 spf)
Битовая глубина : 16 бит
Метод сжатия : С потерями
Размер потока : 513 Мбайт (1%)
Язык : Russian
Default : Нет
Дата кодирования : UTC 2019-01-04 18:41:27
Дата пометки : UTC 2019-01-04 18:41:27




Скачать Веном через торрент https://b.radikal.ru/b43/1812/94/67986a046366.png Скачать, смотреть онлайн Веном бесплантно в хорошем качестве Описание: Что если в один прекрасный день в тебя вселяется существо-симбиот, которое наделяет тебя сверхчеловеческими способностями? Вот ... 10 10 5
Торрент: Зарегистрирован [2019-01-05 06:49] · скачан: 114 раз
Статус: √ проверено
Размер: 44.01 GB
Как cкачать? Как скачать Веном через торрент | UTorrent

% Раздел Тема Автор DL S | L
Ultra HD (UHD: 2K, 4K, 8K) [ 49.59 GB ] Веном / Venom | Лицензия | 2160p bober100 Скачать
1 | 0
Фильмы с авторской озвучкой [ 1.46 GB ] Веном / Venom | AVO | BDRip killermax2013 Скачать
1 | 0
Фильмы [HD 720p, 1080p] (Хороший звук DUB, MVO) [ 8.6 GB ] Веном / Venom | | 1080p, Dub, Original Tiberiumsun69 Скачать
1 | 0
3D Фильмы [ 6.18 GB ] Веном / Venom | Лицензия | 1080p, Дубляж Лицензия slaventi-69 Скачать
1 | 0
Фильмы 2018 [DVDrip, WEB-DLRip, HDrip] (DUB, MVO) [ 2.19 GB ] Веном / Venom | Лицензия | BDRip Twi7ter Скачать
2 | 0
Фильмы (Blu-ray, BD-Remux, HDDVD) [ 39.23 GB ] Веном / Venom | Лицензия | 1080p bober100 Скачать
1 | 0
Фильмы (HD 720p, 1080p) (48-60 fps) [ 9.12 GB ] Веном / Venom | Лицензия | 1080p 60 fps от еnvy / NNNB еnvy Скачать
11 | 1

28-11-2019 20:33  


Отключить вcю реклaмy на сайте, в т.ч. и в плеере онлайн просмотра!

    Дорогой пользователь! Огромная просьба, поблагодарите релизера, оцените раздачу и оставьте свои комментарий, если Вы скачали Веном через торрент бесплатно!!
    Комментировать посты могут только пользователи прошедшие не сложную регистрацию
    Показать сообщения:    


    Веном через торрент
    Скачать бесплатно Веном
    Веном скачать торрент
    Веном смотреть онлайн
    Cкачать фильм Веном бесплатно
    Веном скачать торрент в хорошем качестве
    Веном смотреть онлайн бесплатно в хорошем качестве
    Вы не можете начинать темы
    Вы не можете отвечать на сообщения
    Вы не можете редактировать свои сообщения
    Вы не можете удалять свои сообщения
    Вы не можете голосовать в опросах
    Вы не можете прикреплять файлы к сообщениям
    Вы можете скачивать файлы
    Веном / Venom [2018, ужасы, фантастика, боевик, триллер, UHD BDRemux 2160p] [Dolby Vision TV] Дубляж [Лицензия] смотреть онлайн, скачать торрент picoco.icu