Достать ножи: Стеклянная луковица

MVO

Добыча

Дубляж

Уэнсдэй

1 сезон

Тор

Дубляж

13 клиническая

1 сезон

Жестокая ночь

MVO

Одни из нас

1 сезон

Deluxe

pack

Рекомендуем

30

Пиратка

ВАЖНО

ВАЖНО

Ghostwire

Пиратка

jed

RePack

nioh2

RePack

RDR2

RePack

NEED FOR SPEED™ PAYBACK

RePack

скачать торрент

Кинопоиск HD

Острые козырьки 6 сезон

6 сезон

FAR CRY 6

RePack

скачать торрент

Лицензия

скачать торрент

MVO

1

1 сезон

скачать торрент

1 сезон

скачать торрент

Лицензия

  

Миссия невыполнима: Последствия / Mission: Impossible - Fallout (Кристофер МакКуорри) [2018, боевик, триллер, приключения, UHD BDRemux 2160p] [Dolby Vision TV] [IMAX Edition] Дубляж [Лицензия]

Миссия невыполнима: Последствия через торрент piratbit.org

Размер: 71.16 GB | Добавлен: 4 года 1 мес. назад | Торрент скачан:97 раз
Смотреть онлайн | Скачать | Поддержите нас   

05-01-2019 07:00 Миссия невыполнима: Последствия Скачать торрент  

Миссия невыполнима: Последствия / Mission: Impossible - Fallout
Год выпуска: 2018
Страна: США Китай Франция Норвегия
Жанр: боевик, триллер, приключения
Продолжительность: 02:27:24
Перевод: Дублированный | Лицензия
Субтитры: отсутствуют

Режиссер: Кристофер МакКуорри

rating

В ролях:

Том Круз, Ребекка Фергюсон, Генри Кавилл, Мишель Монахэн, Ванесса Кирби, Уэс Бентли, Саймон Пегг, Анджела Бассетт, Алек Болдуин, Винг Реймз

Описание:

Итан Хант и его команда, а также недавно примкнувшие к ним союзники, вынуждены действовать наперегонки со временем, когда новая миссия идет не по плану.

Качество: UHD BDRemux 2160p | Dolby Vision TV
Формат: MP4

Видео: HEVC HDR, 61465 Kбит/с, 3840x2160
Аудио: 48 kHz, AC3, 5.1, 640 Kbps | Дублированный | RUS |
Данный вид релизов (контейнер MP4) предназначен для встроенного в ТВ (соответственно, с поддержкой DV) плеер.
Т.Е. Можно использовать как USB flash/HDD, так и DLNA / Plex - подобные сервисы/программы. дополнительный-внешний плеер не обязателен.

Внимание!
На моделях LG 2016 возможны сюрпризы "через раз", 2017-2018 должно идти без сюрпризов )
скриншот  скриншот  скриншот  

Общее
Полное имя : D:\Mission.Impossible.Fallout.2018.UHD.BDRemux.2160p.DV.IVA.RUS.ExKinoRay.mp4
Формат : MPEG-4
Профиль формата : Base Media / Version 2
Идентификатор кодека : mp42 (mp42/dby1/isom)
Размер файла : 71,2 Гбайт
Продолжительность : 2 ч. 27 м.
Общий поток : 69,1 Мбит/сек
Дата кодирования : UTC 2019-01-02 16:44:18
Дата пометки : UTC 2019-01-02 16:44:18

Видео #1
Идентификатор : 1
Формат : HEVC
Формат/Информация : High Efficiency Video Coding
Профиль формата : Main 10@L5.1@High
Идентификатор кодека : hev1
Идентификатор кодека/Информация : High Efficiency Video Coding
Продолжительность : 2 ч. 27 м.
Битрейт : 61,5 Мбит/сек
Ширина : 3840 пикселей
Высота : 2160 пикселей
Соотношение сторон : 16:9
Режим частоты кадров : Постоянный
Частота кадров : 23,976 (24000/1001) кадра/сек
Цветовое пространство : YUV
Субдискретизация насыщенности : 4:2:0 (Type 2)
Битовая глубина : 10 бит
Бит/(Пиксели*Кадры) : 0.309
Размер потока : 63,3 Гбайт (89%)
Default : Нет
Дата кодирования : UTC 2019-01-02 16:44:18
Дата пометки : UTC 2019-01-02 16:44:18
Цветовой диапазон : Limited
Основные цвета : BT.2020
Характеристики трансфера : SMPTE ST 2084
Коэффициенты матрицы : BT.2020 non-constant
MasteringDisplay_ColorPrimaries : R: x=0.680000 y=0.320000, G: x=0.265000 y=0.690000, B: x=0.150000 y=0.060000, White point: x=0.312700 y=0.329000
MasteringDisplay_Luminance : min: 0.0001 cd/m2, max: 1000.0000 cd/m2

Видео #2
Идентификатор : 2
Формат : HEVC
Формат/Информация : High Efficiency Video Coding
Профиль формата : Main 10@L5.1@High
Идентификатор кодека : dvhe
Продолжительность : 2 ч. 27 м.
Битрейт : 6992 Кбит/сек
Ширина : 1920 пикселей
Высота : 1080 пикселей
Соотношение сторон : 16:9
Режим частоты кадров : Постоянный
Частота кадров : 23,976 (24000/1001) кадра/сек
Цветовое пространство : YUV
Субдискретизация насыщенности : 4:2:0 (Type 2)
Битовая глубина : 10 бит
Бит/(Пиксели*Кадры) : 0.141
Размер потока : 7,20 Гбайт (10%)
Default : Нет
Дата кодирования : UTC 2019-01-02 16:44:18
Дата пометки : UTC 2019-01-02 16:44:18
Цветовой диапазон : Limited
Основные цвета : BT.2020
Характеристики трансфера : SMPTE ST 2084
Коэффициенты матрицы : BT.2020 non-constant
MasteringDisplay_ColorPrimaries : R: x=0.680000 y=0.320000, G: x=0.265000 y=0.690000, B: x=0.150000 y=0.060000, White point: x=0.312700 y=0.329000
MasteringDisplay_Luminance : min: 0.0001 cd/m2, max: 1000.0000 cd/m2

Аудио
Идентификатор : 3
Формат : AC-3
Формат/Информация : Audio Coding 3
Расширение режима : CM (complete main)
Параметр Endianness формата : Big
Идентификатор кодека : ac-3
Продолжительность : 2 ч. 27 м.
Вид битрейта : Постоянный
Битрейт : 640 Кбит/сек
Каналы : 6 каналов
Расположение каналов : Front: L C R, Side: L R, LFE
Частота : 48,0 КГц
Частота кадров : 31,250 кадров/сек (1536 spf)
Битовая глубина : 16 бит
Метод сжатия : С потерями
Размер потока : 675 Мбайт (1%)
Язык : Russian
Default : Нет
Дата кодирования : UTC 2019-01-02 16:44:18
Дата пометки : UTC 2019-01-02 16:44:18




Скачать Миссия невыполнима: Последствия через торрент https://d.radikal.ru/d14/1811/58/1b35a3e20c1c.png Скачать, смотреть онлайн Миссия невыполнима: Последствия бесплантно в хорошем качестве Описание: Итан Хант и его команда, а также недавно примкнувшие к ним союзники, вынуждены действовать наперегонки со временем, когда новая ... 10 10 3
Торрент: Зарегистрирован [2019-01-05 07:00] · скачан: 97 раз
Статус: √ проверено
Размер: 71.16 GB
Как cкачать? Как скачать Миссия невыполнима: Последствия через торрент | UTorrent

% Раздел Тема Автор DL S | L
Фильмы (HD 720p, 1080p) (48-60 fps) [ 5.44 GB ] Миссия невыполнима: Последствия / Mission: Impossible - Fallout | Дубляж | 720p / 60 FPS slaventi-69 Скачать
1 | 0
3D Фильмы [ 10.75 GB ] Миссия невыполнима: Последствия 3Д / Mission: Impossible - Fallout 3D | Лицензия | 1080p bober100 Скачать
1 | 0
Фильмы (Blu-ray, BD-Remux, HDDVD) [ 33.34 GB ] Миссия невыполнима: Последствия / Mission: Impossible - Fallout | Лицензия | BD Remux 1080p bober100 Скачать
2 | 0
Ultra HD (UHD: 2K, 4K, 8K) [ 76.08 GB ] Миссия невыполнима: Последствия / Mission: Impossible - Fallout | DUB + AVO | 2160p sheker187 Скачать
1 | 0
Фильмы с авторской озвучкой [ 2.17 GB ] Миссия невыполнима: Последствия / Mission: Impossible - Fallout | AVO | BDRip killermax2013 Скачать
1 | 0
Фильмы 2018 [DVDrip, WEB-DLRip, HDrip] (DUB, MVO) [ 2.18 GB ] Миссия невыполнима: Последствия / Mission: Impossible - Fallout | Лицензия | BDRip Twi7ter Скачать
1 | 0
Фильмы 2018 [DVDrip, WEB-DLRip, HDrip] (DUB, MVO) [ 1.46 GB ] Миссия невыполнима: Последствия / Mission: Impossible - Fallout | Лицензия | BDRip Twi7ter Скачать
1 | 0

28-11-2019 20:33  


Отключить вcю реклaмy на сайте, в т.ч. и в плеере онлайн просмотра!

    Дорогой пользователь! Огромная просьба, поблагодарите релизера, оцените раздачу и оставьте свои комментарий, если Вы скачали Миссия невыполнима: Последствия через торрент бесплатно!!
    Комментировать посты могут только пользователи прошедшие не сложную регистрацию
    Показать сообщения:    


    Миссия невыполнима: Последствия через торрент
    Скачать бесплатно Миссия невыполнима: Последствия
    Миссия невыполнима: Последствия скачать торрент
    Миссия невыполнима: Последствия смотреть онлайн
    Cкачать фильм Миссия невыполнима: Последствия бесплатно
    Миссия невыполнима: Последствия скачать торрент в хорошем качестве
    Миссия невыполнима: Последствия смотреть онлайн бесплатно в хорошем качестве
    Вы не можете начинать темы
    Вы не можете отвечать на сообщения
    Вы не можете редактировать свои сообщения
    Вы не можете удалять свои сообщения
    Вы не можете голосовать в опросах
    Вы не можете прикреплять файлы к сообщениям
    Вы можете скачивать файлы
    Миссия невыполнима: Последствия / Mission: Impossible - Fallout [2018, боевик, триллер, приключения, UHD BDRemux 2160p] [Dolby Vision TV] [IMAX Edition] Дубляж [Лицензия] смотреть онлайн, скачать торрент picoco.icu