Достать ножи: Стеклянная луковица

MVO

Добыча

Дубляж

Уэнсдэй

1 сезон

Тор

Дубляж

13 клиническая

1 сезон

Жестокая ночь

MVO

Одни из нас

1 сезон

Deluxe

pack

Рекомендуем

30

Пиратка

ВАЖНО

ВАЖНО

Ghostwire

Пиратка

jed

RePack

nioh2

RePack

RDR2

RePack

NEED FOR SPEED™ PAYBACK

RePack

скачать торрент

Кинопоиск HD

Острые козырьки 6 сезон

6 сезон

FAR CRY 6

RePack

скачать торрент

Лицензия

скачать торрент

MVO

1

1 сезон

скачать торрент

1 сезон

скачать торрент

Лицензия

  

Гладиатор / Gladiator (Ридли Скотт) [2000, боевик, драма, приключения, UHD BDRemux 2160p] [Dolby Vision TV] Дубляж [Расширенная версия]

Гладиатор через торрент piratbit.org

Размер: 60.64 GB | Добавлен: 4 года назад | Торрент скачан:71 раз
Смотреть онлайн | Скачать | Поддержите нас   

09-01-2019 05:12 Гладиатор Скачать торрент  

Гладиатор / Gladiator«Генерал, ставший рабом. Раб, ставший гладиатором. Гладиатор, бросивший вызов империи»Расширенная версия
Год выпуска: 2000
Страна: США, Великобритания
Жанр: боевик, драма, приключения
Продолжительность: 02:50:58
Перевод: Дублированный
Субтитры: отсутствуют
Режиссер: Ридли Скотт

rating
В ролях:

Рассел Кроу (Maximus), Хоакин Феникс (Commodus), Конни Нильсен (Lucilla), Оливер Рид (Proximo), Ричард Харрис (Marcus Aurelius), Дерек Джекоби (Gracchus), Джимон Хонсу (Juba), Дэвид Скофилд (Falco), Джон Шрэпнел (Gaius), Томас Арана (Quintus), Ральф Мёллер (Hagen), Спенсер Трит Кларк (Lucius)
Описание:

В великой Римской империи не было военачальника, равного генералу Максимусу. Непобедимые легионы, которыми командовал этот благородный воин, боготворили его и могли последовать за ним даже в ад.
Качество: UHD BDRemux 2160p | Dolby Vision TV
Формат: MP4

Видео: HEVC HDR, HDR, 43300 Кбит/с, 3840x2160, 23.976 кадр/с
Аудио:48 kHz, AC3, 5.1, 640 Kbps | Дублированный | RUS |


Релиз от:
Данный вид релизов (контейнер MP4) предназначен для встроенного в ТВ (соответственно, с поддержкой DV) плеер.
Т.Е. Можно использовать как USB flash/HDD, так и DLNA / Plex - подобные сервисы/программы. дополнительный-внешний плеер не обязателен.

Внимание!
На моделях LG 2016 возможны сюрпризы "через раз", 2017-2018 должно идти без сюрпризов )
скриншот  скриншот  скриншот  скриншот  скриншот  

Общее
Полное имя : Gladiator.2000.EXTENDED.UHD.BDRemux.2160p.DV.IVA.RUS.ExKinoRay.mp4
Формат : MPEG-4
Профиль формата : Base Media / Version 2
Идентификатор кодека : mp42 (mp42/iso6/isom/msdh/dby1)
Размер файла : 60,6 Гбайт
Продолжительность : 2 ч. 50 м.
Общий поток : 50,8 Мбит/сек
Дата кодирования : UTC 2019-01-07 01:00:59
Дата пометки : UTC 2019-01-07 01:00:59

Видео #1
Идентификатор : 1
Формат : HEVC
Формат/Информация : High Efficiency Video Coding
Коммерческое название : HDR10
Профиль формата : Main 10@L5.1@High
Идентификатор кодека : hev1
Идентификатор кодека/Информация : High Efficiency Video Coding
Продолжительность : 2 ч. 50 м.
Битрейт : 43,3 Мбит/сек
Ширина : 3840 пикселей
Высота : 2160 пикселей
Соотношение сторон : 16:9
Режим частоты кадров : Постоянный
Частота кадров : 23,976 (24000/1001) кадра/сек
Цветовое пространство : YUV
Субдискретизация насыщенности : 4:2:0 (Type 2)
Битовая глубина : 10 бит
Бит/(Пиксели*Кадры) : 0.218
Размер потока : 51,7 Гбайт (85%)
Default : Нет
Дата кодирования : UTC 2019-01-07 01:00:59
Дата пометки : UTC 2019-01-07 01:00:59
Цветовой диапазон : Limited
Основные цвета : BT.2020
Характеристики трансфера : PQ
Коэффициенты матрицы : BT.2020 non-constant
MasteringDisplay_ColorPrimaries : Display P3
MasteringDisplay_Luminance : min: 0.0050 cd/m2, max: 1000 cd/m2
MaxCLL : 1000 cd/m2
MaxFALL : 497 cd/m2
Codec configuration box : hvcC

Видео #2
Идентификатор : 2
Формат : HEVC
Формат/Информация : High Efficiency Video Coding
Коммерческое название : HDR10
Профиль формата : Main 10@L5.1@High
Dolby Vision : 1.0, dvhe.07.06, EL+RPU
Идентификатор кодека : dvhe
Идентификатор кодека/Информация : High Efficiency Video Coding with Dolby Vision
Продолжительность : 2 ч. 50 м.
Битрейт : 6827 Кбит/сек
Ширина : 1920 пикселей
Высота : 1080 пикселей
Соотношение сторон : 16:9
Режим частоты кадров : Постоянный
Частота кадров : 23,976 (24000/1001) кадра/сек
Цветовое пространство : YUV
Субдискретизация насыщенности : 4:2:0 (Type 2)
Битовая глубина : 10 бит
Бит/(Пиксели*Кадры) : 0.137
Размер потока : 8,15 Гбайт (13%)
Default : Нет
Дата кодирования : UTC 2019-01-07 01:00:59
Дата пометки : UTC 2019-01-07 01:00:59
Цветовой диапазон : Limited
Основные цвета : BT.2020
Характеристики трансфера : PQ
Коэффициенты матрицы : BT.2020 non-constant
MasteringDisplay_ColorPrimaries : Display P3
MasteringDisplay_Luminance : min: 0.0050 cd/m2, max: 1000 cd/m2
Codec configuration box : hvcC+dvcC

Аудио
Идентификатор : 3
Формат : AC-3
Формат/Информация : Audio Coding 3
Коммерческое название : Dolby Digital
Идентификатор кодека : ac-3
Продолжительность : 2 ч. 50 м.
Вид битрейта : Постоянный
Битрейт : 640 Кбит/сек
Каналы : 6 каналов
Channel layout : L R C LFE Ls Rs
Частота : 48,0 КГц
Частота кадров : 31,250 кадров/сек (1536 SPF)
Битовая глубина : 16 бит
Метод сжатия : С потерями
Размер потока : 783 Мбайт (1%)
Язык : Russian
ServiceKind/String : Complete Main
Default : Нет
Дата кодирования : UTC 2019-01-07 01:00:59
Дата пометки : UTC 2019-01-07 01:00:59




Скачать Гладиатор через торрент https://c.radikal.ru/c26/1804/aa/bc90e6b9b1da.png Скачать, смотреть онлайн Гладиатор бесплантно в хорошем качестве Описание: В великой Римской империи не было военачальника, равного генералу Максимусу. Непобедимые легионы, которыми командовал этот ... 10 10 7
Торрент: Зарегистрирован [2019-01-09 05:12] · скачан: 71 раз
Статус: √ проверено
Размер: 60.64 GB
Как cкачать? Как скачать Гладиатор через торрент | UTorrent

% Раздел Тема Автор DL S | L
Фильмы (HD 720p, 1080p) (48-60 fps) [ 6.91 GB ] Гладиатор / Gladiator | Дубляж | 720p / 60 FPS slaventi-69 Скачать
3 | 0
Ultra HD (UHD: 2K, 4K, 8K) [ 58.89 GB ] Гладиатор / Gladiator | DUB + 3xMVO + 2xAVO | 2160p sheker187 Скачать
1 | 0
Ultra HD (UHD: 2K, 4K, 8K) [ 41.52 GB ] Гладиатор / Gladiator | DUB + MVO + 2xAVO | 2160p sheker187 Скачать
1 | 0
Ultra HD (UHD: 2K, 4K, 8K) [ 68.21 GB ] Гладиатор / Gladiator | DUB + MVO + 2xAVO | 2160p sheker187 Скачать
1 | 0
Фильмы до 2000 г. [ 2.87 GB ] Гладиатор / Gladiator | | BDRip-AVC NarutoSasuke Скачать
1 | 0
Фильмы (Blu-ray, BD-Remux, HDDVD) [ 43.87 GB ] Гладиатор / Gladiator | DUB+MVO+2xAVO | BD Remux 1080p bober100 Скачать
1 | 0
Фильмы (BDRip, HDrip-AVC) (48-60 fps) [ 3.92 GB ] Гладиатор / Gladiator | | BDRip-AVC, 60fps, Dub, Extended Cut Tiberiumsun69 Скачать
10 | 0

28-11-2019 20:33  


Отключить вcю реклaмy на сайте, в т.ч. и в плеере онлайн просмотра!

    Дорогой пользователь! Огромная просьба, поблагодарите релизера, оцените раздачу и оставьте свои комментарий, если Вы скачали Гладиатор через торрент бесплатно!!
    Комментировать посты могут только пользователи прошедшие не сложную регистрацию
    Показать сообщения:    


    Гладиатор через торрент
    Скачать бесплатно Гладиатор
    Гладиатор скачать торрент
    Гладиатор смотреть онлайн
    Cкачать фильм Гладиатор бесплатно
    Гладиатор скачать торрент в хорошем качестве
    Гладиатор смотреть онлайн бесплатно в хорошем качестве
    Вы не можете начинать темы
    Вы не можете отвечать на сообщения
    Вы не можете редактировать свои сообщения
    Вы не можете удалять свои сообщения
    Вы не можете голосовать в опросах
    Вы не можете прикреплять файлы к сообщениям
    Вы можете скачивать файлы
    Гладиатор / Gladiator [2000, боевик, драма, приключения, UHD BDRemux 2160p] [Dolby Vision TV] Дубляж [Расширенная версия] смотреть онлайн, скачать торрент picoco.icu