Достать ножи: Стеклянная луковица

MVO

Добыча

Дубляж

Уэнсдэй

1 сезон

Тор

Дубляж

13 клиническая

1 сезон

Жестокая ночь

MVO

Одни из нас

1 сезон

Deluxe

pack

Рекомендуем

30

Пиратка

ВАЖНО

ВАЖНО

Ghostwire

Пиратка

jed

RePack

nioh2

RePack

RDR2

RePack

NEED FOR SPEED™ PAYBACK

RePack

скачать торрент

Кинопоиск HD

Острые козырьки 6 сезон

6 сезон

FAR CRY 6

RePack

скачать торрент

Лицензия

скачать торрент

MVO

1

1 сезон

скачать торрент

1 сезон

скачать торрент

Лицензия

  

Агент Джонни Инглиш 3.0 / Johnny English Strikes Again (Дэвид Керр) [2018, боевик, комедия, приключения, UHD WEBRip 2160p] Дубляж [iTunes]

Агент Джонни Инглиш 3.0 через торрент piratbit.org

Размер: 11.37 GB | Добавлен: 4 года назад | Торрент скачан:172 раза
Смотреть онлайн | Скачать | Поддержите нас   

10-01-2019 04:48 Агент Джонни Инглиш 3.0 Скачать торрент  

Агент Джонни Инглиш 3.0 / Johnny English Strikes Again««Не всегда интеллект красит мужчину»»

Год выпуска: 2018
Страна: Великобритания, Франция, США
Жанр: боевик, комедия, приключения
Продолжительность: 01:28:49
Перевод: Дублированный [iTunes]
Субтитры: Английские
В ролях:
Эмма Томпсон, Ольга Куриленко, Роуэн Эткинсон, Джейк Лэси, Бен Миллер, Миранда Хеннесси, Адам Джеймс, Пиппа Беннетт-Уорнер, Ирена Тишина, Джеймс Илс
Описание:
Когда все агенты секретной службы Её Величества внезапно выходят из строя, в игру вступает запасной вариант. Образец английского стиля и любимец роковых красоток; король безвыходных ситуаций и хранитель аналоговых традиций в цифровом мире, агент Джонни Инглиш - боль и гордость британской разведки. Этому парню есть что взбалтывать, и он взболтает не по-детски.
Рейтинг:

MPAA: PG - Рекомендуется присутствие родителей
Качество: UHD WEBRip 2160p
Формат: MKV
Видео: HEVC HDR, 16,4 Мбит/с, 3840x1604, 23.976 Кадр/с, 10 bit
Аудио №1: Russian / Dolby Digital Audio / 5.1 / 48 kHz / 384 kbps Дубляж iTunes
Аудио №2: English/ DTS Audio / 5.1 / 48 kHz / 1509 kbps
Навигация по главам: есть
General
Unique ID : 172899148774055067503566267896792174636 (0x82132A3038B3EF480B681CEC145D502C)
Complete name : X:\Releases\Johnny.English.Strikes.Again.2018.WEBRip.HEVC.HDR.2160p.mkv
Format : Matroska
Format version : Version 4
File size : 11.4 GiB
Duration : 1 h 28 min
Overall bit rate : 18.3 Mb/s
Encoded date : UTC 2019-01-10 03:36:48
Writing application : mkvmerge v30.1.0 ('Forever And More') 64-bit
Writing library : libebml v1.3.6 + libmatroska v1.4.9
Attachments : poster.jpg

Video
ID : 1
Format : HEVC
Format/Info : High Efficiency Video Coding
Commercial name : HDR10
Format profile : Main 10@L5@Main
Codec ID : V_MPEGH/ISO/HEVC
Duration : 1 h 28 min
Bit rate : 16.4 Mb/s
Width : 3 840 pixels
Height : 1 604 pixels
Display aspect ratio : 2.40:1
Frame rate mode : Constant
Frame rate : 23.976 (24000/1001) FPS
Color space : YUV
Chroma subsampling : 4:2:0
Bit depth : 10 bits
Bits/(Pixel*Frame) : 0.111
Stream size : 10.2 GiB (90%)
Default : Yes
Forced : No
Color range : Limited
Color primaries : BT.2020
Transfer characteristics : PQ
Matrix coefficients : BT.2020 non-constant
Mastering display color pri : Display P3
Mastering display luminance : min: 0.0050 cd/m2, max: 1000 cd/m2
Maximum Content Light Level : 960 cd/m2
Maximum Frame-Average Light : 105 cd/m2

Audio #1
ID : 2
Format : AC-3
Format/Info : Audio Coding 3
Commercial name : Dolby Digital
Codec ID : A_AC3
Duration : 1 h 28 min
Bit rate mode : Constant
Bit rate : 384 kb/s
Channel(s) : 6 channels
Channel layout : L R C LFE Ls Rs
Sampling rate : 48.0 kHz
Frame rate : 31.250 FPS (1536 SPF)
Bit depth : 16 bits
Compression mode : Lossy
Stream size : 243 MiB (2%)
Title : Дубляж iTunes
Language : Russian
Service kind : Complete Main
Default : Yes
Forced : No

Audio #2
ID : 3
Format : DTS
Format/Info : Digital Theater Systems
Codec ID : A_DTS
Duration : 1 h 28 min
Bit rate mode : Constant
Bit rate : 1 509 kb/s
Channel(s) : 6 channels
Channel layout : C L R Ls Rs LFE
Sampling rate : 48.0 kHz
Frame rate : 93.750 FPS (512 SPF)
Bit depth : 24 bits
Compression mode : Lossy
Stream size : 955 MiB (8%)
Language : English
Default : No
Forced : No

Text
ID : 4
Format : UTF-8
Codec ID : S_TEXT/UTF8
Codec ID/Info : UTF-8 Plain Text
Duration : 1 h 22 min
Bit rate : 57 b/s
Count of elements : 1020
Stream size : 34.4 KiB (0%)
Language : English
Default : Yes
Forced : No

Menu
00:00:00.000 : en:00:00:00.000
00:05:06.681 : en:00:05:06.681
00:09:05.378 : en:00:09:05.378
00:13:14.794 : en:00:13:14.794
00:19:22.370 : en:00:19:22.370
00:21:31.832 : en:00:21:31.832
00:26:41.975 : en:00:26:41.975
00:32:31.241 : en:00:32:31.241
00:34:48.086 : en:00:34:48.086
00:39:49.429 : en:00:39:49.429
00:45:49.121 : en:00:45:49.121
00:51:22.204 : en:00:51:22.204
00:54:31.852 : en:00:54:31.852
00:58:58.201 : en:00:58:58.201
01:02:58.441 : en:01:02:58.441
01:08:21.597 : en:01:08:21.597
01:11:40.963 : en:01:11:40.963
01:15:03.416 : en:01:15:03.416
01:20:54.808 : en:01:20:54.808
01:23:52.527 : en:01:23:52.527



Скачать Агент Джонни Инглиш 3.0 через торрент https://c.radikal.ru/c00/1901/4e/6d5c562a3671.png Скачать, смотреть онлайн Агент Джонни Инглиш 3.0 бесплантно в хорошем качестве Описание: Когда все агенты секретной службы Её Величества внезапно выходят из строя, в игру вступает запасной вариант. Образец английского ... 9.7 10 7
Торрент: Зарегистрирован [2019-01-10 04:48] · скачан: 172 раз
Статус: √ проверено
Размер: 11.37 GB
Как cкачать? Как скачать Агент Джонни Инглиш 3.0 через торрент | UTorrent

% Раздел Тема Автор DL S | L
Ultra HD (UHD: 2K, 4K, 8K) [ 51.15 GB ] Агент Джонни Инглиш 3.0 / Johnny English Strikes Again | Лицензия | 2160p bober100 Скачать
1 | 0
Ultra HD (UHD: 2K, 4K, 8K) [ 20.03 GB ] Агент Джонни Инглиш 3.0 / Johnny English Strikes Again | Лицензия | 2160p sheker187 Скачать
1 | 0
Фильмы [HD 720p, 1080p] (Хороший звук DUB, MVO) [ 7.98 GB ] Агент Джонни Инглиш 3.0 / Johnny English Strikes Again | Лицензия | 1080p bober100 Скачать
1 | 0
Фильмы 2018 [DVDrip, WEB-DLRip, HDrip] (DUB, MVO) [ 1.46 GB ] Агент Джонни Инглиш 3.0 / Johnny English Strikes Again | Лицензия | BDRip Twi7ter Скачать
1 | 0
T Фильмы [HD 720p, 1080p] (Хороший звук DUB, MVO) [ 4.6 GB ] Агент Джонни Инглиш 3.0 / Johnny English Strikes Again | DUB | 720p bober100 Скачать
1 | 0
Фильмы [HD 720p, 1080p] (Хороший звук DUB, MVO) [ 4.77 GB ] Агент Джонни Инглиш 3.0 / Johnny English Strikes Again | Лицензия | 720p bober100 Скачать
1 | 0
Ultra HD (UHD: 2K, 4K, 8K) [ 10.07 GB ] Агент Джонни Инглиш 3.0 / Johnny English Strikes Again | Лицензия | 2160p sheker187 Скачать
1 | 0

28-11-2019 20:33  


Отключить вcю реклaмy на сайте, в т.ч. и в плеере онлайн просмотра!

11-01-2019 23:36 Агент Джонни Инглиш 3.0 Скачать торрент  

эхх... придётся ждать UHD с нормальной дорожкой



    Дорогой пользователь! Огромная просьба, поблагодарите релизера, оцените раздачу и оставьте свои комментарий, если Вы скачали Агент Джонни Инглиш 3.0 через торрент бесплатно!!
    Комментировать посты могут только пользователи прошедшие не сложную регистрацию
    Показать сообщения:    


    Агент Джонни Инглиш 3.0 через торрент
    Скачать бесплатно Агент Джонни Инглиш 3.0
    Агент Джонни Инглиш 3.0 скачать торрент
    Агент Джонни Инглиш 3.0 смотреть онлайн
    Cкачать фильм Агент Джонни Инглиш 3.0 бесплатно
    Агент Джонни Инглиш 3.0 скачать торрент в хорошем качестве
    Агент Джонни Инглиш 3.0 смотреть онлайн бесплатно в хорошем качестве
    Вы не можете начинать темы
    Вы не можете отвечать на сообщения
    Вы не можете редактировать свои сообщения
    Вы не можете удалять свои сообщения
    Вы не можете голосовать в опросах
    Вы не можете прикреплять файлы к сообщениям
    Вы можете скачивать файлы
    Агент Джонни Инглиш 3.0 / Johnny English Strikes Again [2018, боевик, комедия, приключения, UHD WEBRip 2160p] Дубляж [iTunes] смотреть онлайн, скачать торрент picoco.icu