Достать ножи: Стеклянная луковица

MVO

Добыча

Дубляж

Уэнсдэй

1 сезон

Тор

Дубляж

13 клиническая

1 сезон

Жестокая ночь

MVO

Одни из нас

1 сезон

Deluxe

pack

Рекомендуем

30

Пиратка

ВАЖНО

ВАЖНО

Ghostwire

Пиратка

jed

RePack

nioh2

RePack

RDR2

RePack

NEED FOR SPEED™ PAYBACK

RePack

скачать торрент

Кинопоиск HD

Острые козырьки 6 сезон

6 сезон

FAR CRY 6

RePack

скачать торрент

Лицензия

скачать торрент

MVO

1

1 сезон

скачать торрент

1 сезон

скачать торрент

Лицензия

  

Звёздные войны: Последние джедаи / Star Wars: Episode VIII - The Last Jedi (Райан Джонсон) [2017, фантастика, фэнтези, боевик, UHD BDRemux 2160p] Дубляж [Dolby Vision]

Звёздные войны: Последние джедаи через торрент piratbit.org

Размер: 49.47 GB | Добавлен: 4 года назад | Торрент скачан:76 раз
Смотреть онлайн | Скачать | Поддержите нас   

11-01-2019 04:28 Звёздные войны: Последние джедаи Скачать торрент  

Звёздные войны: Последние джедаи / Star Wars: Episode VIII - The Last Jedi

Год выпуска: 2017
Страна: США
Жанр: фантастика, фэнтези, боевик, приключения
Продолжительность: 02:31:51
Перевод: Дублированный
Режиссер: Райан Джонсон
В ролях:

Марк Хэмилл (Luke Skywalker / Dobbu Scay), Кэрри Фишер (Leia Organa), Адам Драйвер (Kylo Ren), Дэйзи Ридли (Rey), Джон Бойега (Finn), Оскар Айзек (Poe Dameron), Энди Серкис (Snoke), Лупита Нионго (Maz Kanata), Донал Глисон (General Hux), Энтони Дэниелс (C-3PO), Гвендолин Кристи (Captain Phasma), Келли Мари Трэн (Rose Tico)
Описание:
Новая история о противостоянии света и тьмы, добра и зла начинается после гибели Хана Соло. В Галактике, где Первый Орден и Сопротивление яростно сражаются друг с другом в войне, героиня Рей пробудила в себе Силу. Но что произойдет, когда она встретится с единственным оставшимся в живых рыцарем-джедаем - Люком Скайуокером?
Рейтинг:

MPAA: PG-13 - Детям до 13 лет просмотр не желателен
Качество: UHD BDRemux 2160p | Dolby Vision
Формат: MP4
Видео: HEVC, 45.9 Мбит/с, 3840x2160
Аудио: Русский (AC3, 6 ch, 640 Кбит/с)
Данный вид релизов (контейнер MP4) предназначен для встроенного в ТВ (соответственно, с поддержкой DV) плеер.
Т.Е. Можно использовать как USB flash/HDD, так и DLNA / Plex - подобные сервисы/программы. дополнительный-внешний плеер не обязателен.

Внимание!
На моделях LG 2016 возможны сюрпризы "через раз", 2017-2018 должно идти без сюрпризов )
Общее
Полное имя : Star.Wars.The.Last.Jedi.2017.UHD.BDRemux.2160p.DV.IVA.RUS.ExKinoRay.mp4
Формат : MPEG-4
Профиль формата : Base Media / Version 2
Идентификатор кодека : mp42 (mp42/iso6/isom/msdh/dby1)
Размер файла : 49,5 Гбайт
Продолжительность : 2 ч. 31 м.
Общий поток : 46,6 Мбит/сек
Дата кодирования : UTC 2019-01-10 19:14:28
Дата пометки : UTC 2019-01-10 19:14:28

Видео #1
Идентификатор : 1
Формат : HEVC
Формат/Информация : High Efficiency Video Coding
Коммерческое название : HDR10
Профиль формата : Main 10@L5.1@High
Идентификатор кодека : hev1
Идентификатор кодека/Информация : High Efficiency Video Coding
Продолжительность : 2 ч. 31 м.
Битрейт : 45,9 Мбит/сек
Ширина : 3840 пикселей
Высота : 2160 пикселей
Соотношение сторон : 16:9
Режим частоты кадров : Постоянный
Частота кадров : 23,976 (24000/1001) кадра/сек
Цветовое пространство : YUV
Субдискретизация насыщенности : 4:2:0 (Type 2)
Битовая глубина : 10 бит
Бит/(Пиксели*Кадры) : 0.231
Размер потока : 48,7 Гбайт (98%)
Default : Нет
Дата кодирования : UTC 2019-01-10 19:14:28
Дата пометки : UTC 2019-01-10 19:14:28
Цветовой диапазон : Limited
Основные цвета : BT.2020
Характеристики трансфера : PQ
Коэффициенты матрицы : BT.2020 non-constant
MasteringDisplay_ColorPrimaries : Display P3
MasteringDisplay_Luminance : min: 0.0020 cd/m2, max: 1000 cd/m2
Codec configuration box : hvcC

Видео #2
Идентификатор : 2
Формат : HEVC
Формат/Информация : High Efficiency Video Coding
Коммерческое название : HDR10
Профиль формата : Main 10@L5.1@High
Dolby Vision : 1.0, dvhe.07.06, EL+RPU
Идентификатор кодека : dvhe
Идентификатор кодека/Информация : High Efficiency Video Coding with Dolby Vision
Продолжительность : 2 ч. 31 м.
Битрейт : 72,9 Кбит/сек
Ширина : 1920 пикселей
Высота : 1080 пикселей
Соотношение сторон : 16:9
Режим частоты кадров : Постоянный
Частота кадров : 23,976 (24000/1001) кадра/сек
Цветовое пространство : YUV
Субдискретизация насыщенности : 4:2:0 (Type 2)
Битовая глубина : 10 бит
Бит/(Пиксели*Кадры) : 0.001
Размер потока : 79,2 Мбайт (0%)
Default : Нет
Дата кодирования : UTC 2019-01-10 19:14:28
Дата пометки : UTC 2019-01-10 19:14:28
Цветовой диапазон : Limited
Основные цвета : BT.2020
Характеристики трансфера : PQ
Коэффициенты матрицы : BT.2020 non-constant
MasteringDisplay_ColorPrimaries : Display P3
MasteringDisplay_Luminance : min: 0.0020 cd/m2, max: 1000 cd/m2
Codec configuration box : hvcC+dvcC

Аудио
Идентификатор : 3
Формат : AC-3
Формат/Информация : Audio Coding 3
Коммерческое название : Dolby Digital
Идентификатор кодека : ac-3
Продолжительность : 2 ч. 31 м.
Вид битрейта : Постоянный
Битрейт : 640 Кбит/сек
Каналы : 6 каналов
Channel layout : L R C LFE Ls Rs
Частота : 48,0 КГц
Частота кадров : 31,250 кадров/сек (1536 SPF)
Битовая глубина : 16 бит
Метод сжатия : С потерями
Размер потока : 695 Мбайт (1%)
Язык : Russian
ServiceKind/String : Complete Main
Default : Нет
Дата кодирования : UTC 2019-01-10 19:14:28
Дата пометки : UTC 2019-01-10 19:14:28
Оскар, 2018 год
Номинации (4):
Лучший звук
Лучший монтаж звука
Лучшие визуальные эффекты
Лучший саундтрек

Британская академия, 2018 год
Номинации (2):
Лучший звук
Лучшие визуальные эффекты



Скачать Звёздные войны: Последние джедаи через торрент https://d.radikal.ru/d41/1901/fc/ad2a405da343.png Скачать, смотреть онлайн Звёздные войны: Последние джедаи бесплантно в хорошем качестве Описание: Новая история о противостоянии света и тьмы, добра и зла начинается после гибели Хана Соло. В Галактике, где Первый Орден и ... 10 10 5
Info! Золотая раздача, скачанное не засчитывается.
Торрент: Зарегистрирован [2019-01-11 04:28] · скачан: 76 раз
Статус: √ проверено
Размер: 49.47 GB
Как cкачать? Как скачать Звёздные войны: Последние джедаи через торрент | UTorrent

% Раздел Тема Автор DL S | L
Ultra HD (UHD: 2K, 4K, 8K) [ 54.36 GB ] Звездные войны: Последние джедаи / Star Wars: Episode VIII - The Last Jedi | Лицензия | BD Remux 2160p, (Dolby Vision Profile 8 bober100 Скачать
1 | 0
Фильмы (HD 720p, 1080p) (48-60 fps) [ 4.97 GB ] Звездные войны: Эпизод 8 - Последние Джедаи / Star Wars: Episode VIII - The Last Jedi | Дубляж | 720p / 60 FPS slaventi-69 Скачать
1 | 1
Ultra HD (UHD: 2K, 4K, 8K) [ 69.43 GB ] Звёздные войны: Последние джедаи / Star Wars: Episode VIII - The Last Jedi | DUB | 2160p sheker187 Скачать
1 | 1
Фильмы [HD 720p, 1080p] (Хороший звук DUB, MVO) [ 7.86 GB ] Звездные войны: Последние джедаи / Star Wars: Episode VIII - The Last Jedi | AVO | 720p, Dub, 3 x AVO morfyi Скачать
1 | 1
Фильмы 2017 [DVDrip, WEB-DLRip, HDrip] (DUB, MVO) [ 4.24 GB ] Звездные войны: Последние джедаи / Star Wars: Episode VIII - The Last Jedi | AVO | BDRip-AVC killermax2013 Скачать
1 | 0
Ultra HD (UHD: 2K, 4K, 8K) [ 33.11 GB ] Звёздные войны: Последние джедаи / Star Wars: Episode VIII - The Last Jedi | DUB + AVO | 2160p sheker187 Скачать
1 | 0
Ultra HD (UHD: 2K, 4K, 8K) [ 60.4 GB ] Звёздные войны: Последние джедаи / Star Wars: Episode VIII - The Last Jedi | DUB | 2160p sheker187 Скачать
1 | 0

28-11-2019 20:33  


Отключить вcю реклaмy на сайте, в т.ч. и в плеере онлайн просмотра!

    Дорогой пользователь! Огромная просьба, поблагодарите релизера, оцените раздачу и оставьте свои комментарий, если Вы скачали Звёздные войны: Последние джедаи через торрент бесплатно!!
    Комментировать посты могут только пользователи прошедшие не сложную регистрацию
    Показать сообщения:    


    Звёздные войны: Последние джедаи через торрент
    Скачать бесплатно Звёздные войны: Последние джедаи
    Звёздные войны: Последние джедаи скачать торрент
    Звёздные войны: Последние джедаи смотреть онлайн
    Cкачать фильм Звёздные войны: Последние джедаи бесплатно
    Звёздные войны: Последние джедаи скачать торрент в хорошем качестве
    Звёздные войны: Последние джедаи смотреть онлайн бесплатно в хорошем качестве
    Вы не можете начинать темы
    Вы не можете отвечать на сообщения
    Вы не можете редактировать свои сообщения
    Вы не можете удалять свои сообщения
    Вы не можете голосовать в опросах
    Вы не можете прикреплять файлы к сообщениям
    Вы можете скачивать файлы
    Звёздные войны: Последние джедаи / Star Wars: Episode VIII - The Last Jedi [2017, фантастика, фэнтези, боевик, UHD BDRemux 2160p] Дубляж [Dolby Vision] смотреть онлайн, скачать торрент picoco.icu