Достать ножи: Стеклянная луковица

MVO

Добыча

Дубляж

Уэнсдэй

1 сезон

Тор

Дубляж

13 клиническая

1 сезон

Жестокая ночь

MVO

Одни из нас

1 сезон

Deluxe

pack

Рекомендуем

30

Пиратка

ВАЖНО

ВАЖНО

Ghostwire

Пиратка

jed

RePack

nioh2

RePack

RDR2

RePack

NEED FOR SPEED™ PAYBACK

RePack

скачать торрент

Кинопоиск HD

Острые козырьки 6 сезон

6 сезон

FAR CRY 6

RePack

скачать торрент

Лицензия

скачать торрент

MVO

1

1 сезон

скачать торрент

1 сезон

скачать торрент

Лицензия

  

Храброе сердце / Braveheart (Мэл Гибсон) [1995, драма, военный, биография, UHD BDRemux 2160p] Дубляж [Dolby Vision]

Храброе сердце через торрент piratbit.org

Размер: 72.09 GB | Добавлен: 4 года назад | Торрент скачан:28 раз
Смотреть онлайн | Скачать | Поддержите нас   

11-01-2019 04:34 Храброе сердце Скачать торрент  

Храброе сердце / Braveheart«Все умирают, но не все живут по-настоящему»
Год выпуска: 1995
Страна: США
Жанр: драма, военный, биография, история
Продолжительность: 02:57:43
Перевод: Дублированный
Режиссер: Мэл Гибсон
В ролях:

Мэл Гибсон (William Wallace), Софи Марсо (Princess Isabelle), Патрик МакГуэн (Longshanks - King Edward I), Энгус МакФадьен (Robert the Bruce), Брендан Глисон (Hamish), Катрин МакКормак (Murron), Брайан Кокс (Argyle Wallace), Джерард МакСорли (Cheltham), Мартин Мерфи (Lord Talmadge), Томми Флэнаган (Morrison), Джон Мурта (Lochlan), Джеймс Робинсон (Young William)
Описание:
Действие фильма начинается в 1280 году в Шотландии. Это история легендарного национального героя Уильяма Уоллеса, посвятившего себя борьбе с англичанами при короле Эдварде Длинноногом.
Рейтинг:

MPAA: R - Лицам до 17 лет обязательно присутствие взрослого
Качество: UHD BDRemux 2160p | Dolby Vision
Формат: MP4
Видео: HEVC, 51.6 Мбит/с, 3840x2160, 23.976 Кадр/с
Аудио: Русский (AC3, 6 ch, 640 Кбит/с)
Данный вид релизов (контейнер MP4) предназначен для встроенного в ТВ (соответственно, с поддержкой DV) плеер.
Т.Е. Можно использовать как USB flash/HDD, так и DLNA / Plex - подобные сервисы/программы. дополнительный-внешний плеер не обязателен.

Внимание!
На моделях LG 2016 возможны сюрпризы "через раз", 2017-2018 должно идти без сюрпризов )
• Несколько главных сражений в фильме пришлось переснимать из-за того, что на статистах в кадре были замечены солнечные очки и наручные часы.
• Король Эдуард I не был язычником, как это утверждается в фильме. Более того, он был участником Восьмого крестового похода.
• Отец и брат реального Уильяма Уоллеса были убиты в 1291 году, то есть когда Уоллесу было около 21 года, а не 10, как это показано в фильме.
• Реальный Уильям Уоллес не мог быть отцом Эдуарда III, как это предполагается в фильме. Между казнью Уоллеса (1305 год) и рождением Эдуарда III (1312 год) прошло 7 лет.
• В изображении битвы при Стерлингском мосту отсутствует собственно Стерлингский мост, который сыграл важную роль в победе шотландцев.
• Захват властями Уоллеса был спровоцирован не предательством отца Роберта Брюса, как это показано в фильме, а предательством лояльного английскому королю шотландского рыцаря Джона де Ментейса.
• Синяя краска из вайды, которой накрашены лица Уоллеса и его соратников, применялась древними кельтскими воинами. В XIII веке, когда происходит действия фильма, она не использовалась.
• Король Эдуард I умер не в одно время с Уоллесом, а через два года (в 1307 году).
• Меч Уоллеса в настоящее время хранится в Британском историческом музее. Во время съемок фильма "Храброе сердце" Мел Гибсон держал в руках 12 копий этого меча. Все копии были выполнены в точном соответствии оригиналу, т. е. и размер и вес.
Специальная премия Национального совета обозревателей Мелу Гибсону.

Оскар, 1996 год
Победитель (5):
Лучший фильм
Лучший режиссер (Мэл Гибсон)
Лучшая работа оператора
Лучший монтаж звука
Лучший грим
Номинации (5):
Лучший сценарий
Лучшие костюмы
Лучший звук
Лучший монтаж
Лучший саундтрек к драматическому фильму

Золотой глобус, 1996 год
Победитель (1):
Лучший режиссер (Мэл Гибсон)
Номинации (3):
Лучший фильм (драма)
Лучший сценарий
Лучший саундтрек

Премия канала «MTV», 1996 год
Победитель (1):
Лучшая экшн-сцена
Номинации (2):
Лучший фильм
Лучшая мужская роль (Мэл Гибсон)

Британская академия, 1996 год
Победитель (3):
Лучшая работа оператора
Лучшие костюмы
Лучший звук
Номинации (4):
Лучший грим/прически
Лучшая работа художника-постановщика
Премия имени Дэвида Лина за достижения в режиссуре (Мэл Гибсон)
Премия имени Энтони Эскуита за достижения в создании музыки к фильму

Сатурн, 1996 год
Номинации (3):
Лучшие костюмы
Лучшая музыка
Лучший приключенческий фильм или боевик
Общее
Полное имя : Braveheart.1995.UHD.BDRemux.2160p.DV.IVA.RUS.ExKinoRay.mp4
Формат : MPEG-4
Профиль формата : Base Media / Version 2
Идентификатор кодека : mp42 (mp42/iso6/isom/msdh/dby1)
Размер файла : 72,1 Гбайт
Продолжительность : 2 ч. 57 м.
Общий поток : 58,1 Мбит/сек
Дата кодирования : UTC 2019-01-10 14:57:41
Дата пометки : UTC 2019-01-10 14:57:41

Видео #1
Идентификатор : 1
Формат : HEVC
Формат/Информация : High Efficiency Video Coding
Коммерческое название : HDR10
Профиль формата : Main 10@L5.1@High
Идентификатор кодека : hev1
Идентификатор кодека/Информация : High Efficiency Video Coding
Продолжительность : 2 ч. 57 м.
Битрейт : 51,6 Мбит/сек
Ширина : 3840 пикселей
Высота : 2160 пикселей
Соотношение сторон : 16:9
Режим частоты кадров : Постоянный
Частота кадров : 23,976 (24000/1001) кадра/сек
Цветовое пространство : YUV
Субдискретизация насыщенности : 4:2:0 (Type 2)
Битовая глубина : 10 бит
Бит/(Пиксели*Кадры) : 0.259
Размер потока : 64,0 Гбайт (89%)
Default : Нет
Дата кодирования : UTC 2019-01-10 14:57:41
Дата пометки : UTC 2019-01-10 14:57:41
Цветовой диапазон : Limited
Основные цвета : BT.2020
Характеристики трансфера : PQ
Коэффициенты матрицы : BT.2020 non-constant
MasteringDisplay_ColorPrimaries : Display P3
MasteringDisplay_Luminance : min: 0.0001 cd/m2, max: 1000 cd/m2
Codec configuration box : hvcC

Видео #2
Идентификатор : 2
Формат : HEVC
Формат/Информация : High Efficiency Video Coding
Коммерческое название : HDR10
Профиль формата : Main 10@L5.1@High
Dolby Vision : 1.0, dvhe.07.06, EL+RPU
Идентификатор кодека : dvhe
Идентификатор кодека/Информация : High Efficiency Video Coding with Dolby Vision
Продолжительность : 2 ч. 57 м.
Битрейт : 5858 Кбит/сек
Ширина : 1920 пикселей
Высота : 1080 пикселей
Соотношение сторон : 16:9
Режим частоты кадров : Постоянный
Частота кадров : 23,976 (24000/1001) кадра/сек
Цветовое пространство : YUV
Субдискретизация насыщенности : 4:2:0 (Type 2)
Битовая глубина : 10 бит
Бит/(Пиксели*Кадры) : 0.118
Размер потока : 7,27 Гбайт (10%)
Default : Нет
Дата кодирования : UTC 2019-01-10 14:57:41
Дата пометки : UTC 2019-01-10 14:57:41
Цветовой диапазон : Limited
Основные цвета : BT.2020
Характеристики трансфера : PQ
Коэффициенты матрицы : BT.2020 non-constant
MasteringDisplay_ColorPrimaries : Display P3
MasteringDisplay_Luminance : min: 0.0001 cd/m2, max: 1000 cd/m2
Codec configuration box : hvcC+dvcC

Аудио
Идентификатор : 3
Формат : AC-3
Формат/Информация : Audio Coding 3
Коммерческое название : Dolby Digital
Идентификатор кодека : ac-3
Продолжительность : 2 ч. 57 м.
Вид битрейта : Постоянный
Битрейт : 640 Кбит/сек
Каналы : 6 каналов
Channel layout : L R C LFE Ls Rs
Частота : 48,0 КГц
Частота кадров : 31,250 кадров/сек (1536 SPF)
Битовая глубина : 16 бит
Метод сжатия : С потерями
Размер потока : 813 Мбайт (1%)
Язык : Russian
ServiceKind/String : Complete Main
Default : Нет
Дата кодирования : UTC 2019-01-10 14:57:41
Дата пометки : UTC 2019-01-10 14:57:41



Скачать Храброе сердце через торрент https://b.radikal.ru/b04/1805/c0/a58cfa889c29.png Скачать, смотреть онлайн Храброе сердце бесплантно в хорошем качестве Описание: Действие фильма начинается в 1280 году в Шотландии. Это история легендарного национального героя Уильяма Уоллеса, посвятившего ... 8.2 10 5
Info! Золотая раздача, скачанное не засчитывается.
Торрент: Зарегистрирован [2019-01-11 04:34] · скачан: 28 раз
Статус: √ проверено
Размер: 72.09 GB
Как cкачать? Как скачать Храброе сердце через торрент | UTorrent

% Раздел Тема Автор DL S | L
Фильмы [HD 720p, 1080p] (Хороший звук DUB, MVO) [ 7.8 GB ] Храброе сердце / Braveheart | Лицензия | 1080p, HEVC (10bit Мичман37 Скачать
1 | 0
Ultra HD (UHD: 2K, 4K, 8K) [ 119.39 GB ] Храброе сердце / Braveheart | DUB + 9xMVO + 3xAVO | 2160p sheker187 Скачать
1 | 0
Ultra HD (UHD: 2K, 4K, 8K) [ 18.61 GB ] Храброе сердце / Braveheart | Дубляж | HDRip 2160p, HEVC (10bit HANNIBALL Скачать
1 | 0
Ultra HD (UHD: 2K, 4K, 8K) [ 80.06 GB ] Храброе сердце / Braveheart | DUB + 7xMVO + 4xAVO + DVO + VO | 2160p sheker187 Скачать
1 | 0
Ultra HD (UHD: 2K, 4K, 8K) [ 89.82 GB ] Храброе сердце / Braveheart | DUB + AVO | 2160p sheker187 Скачать
1 | 0
Ultra HD (UHD: 2K, 4K, 8K) [ 55.24 GB ] Храброе сердце / Braveheart | DUB + AVO | 2160p sheker187 Скачать
1 | 0
Фильмы (BDRip, HDrip-AVC) (48-60 fps) [ 3.95 GB ] Храброе сердце / Braveheart | | BDRip-AVC, 60fps, Dub Tiberiumsun69 Скачать
6 | 0

28-11-2019 20:33  


Отключить вcю реклaмy на сайте, в т.ч. и в плеере онлайн просмотра!

13-01-2019 19:02 Храброе сердце Скачать торрент  

с трудом можно назвать лучшим этот формат так как заработал в KMP не с первого раза и звук с картинкой не сходился а на других проигрывателях не заработал вообще для примера он же в другом формате но с большим размером файла работает идеально MKV BDMV в WindowsPlayer не путать со встроенным .(BluRay для плеера Macgo!!!) c этими форматами проблем нет и не было / MP4 без тормозов пошёл только на последней версии KMPlayer на более ранних версиях вышеперечисленные проблемы . как вариант- если будет тормозить то установите последнюю версию KMP.



    Дорогой пользователь! Огромная просьба, поблагодарите релизера, оцените раздачу и оставьте свои комментарий, если Вы скачали Храброе сердце через торрент бесплатно!!
    Комментировать посты могут только пользователи прошедшие не сложную регистрацию
    Показать сообщения:    


    Храброе сердце через торрент
    Скачать бесплатно Храброе сердце
    Храброе сердце скачать торрент
    Храброе сердце смотреть онлайн
    Cкачать фильм Храброе сердце бесплатно
    Храброе сердце скачать торрент в хорошем качестве
    Храброе сердце смотреть онлайн бесплатно в хорошем качестве
    Вы не можете начинать темы
    Вы не можете отвечать на сообщения
    Вы не можете редактировать свои сообщения
    Вы не можете удалять свои сообщения
    Вы не можете голосовать в опросах
    Вы не можете прикреплять файлы к сообщениям
    Вы можете скачивать файлы
    Храброе сердце / Braveheart [1995, драма, военный, биография, UHD BDRemux 2160p] Дубляж [Dolby Vision] смотреть онлайн, скачать торрент picoco.icu