Доктор Стрэндж

Лицензия

Добыча

MVO

Дом дракона

1 сезон

Тор

Лицензия

Мэверик

Лицензия

Там, где раки поют

MVO

Властелин колец

1 сезон

Ultimate

pack

Рекомендуем

30

Repack

ВАЖНО

ВАЖНО

Ghostwire

RePack

jed

RePack

nioh2

RePack

RDR2

RePack

NEED FOR SPEED™ PAYBACK

RePack

скачать торрент

Кинопоиск HD

Острые козырьки 6 сезон

6 сезон

FAR CRY 6

RePack

скачать торрент

Лицензия

скачать торрент

MVO

1

1 сезон

скачать торрент

1 сезон

скачать торрент

Лицензия

  

Мальчик с коньками (Сергей Гиппиус) [1962, СССР, короткометражный, SATRip от AVP Studio]

Мальчик с коньками через торрент piratbit.org

Размер: 373 MB | Добавлен: 3 года 8 мес. назад | Торрент скачан:3 раза
Смотреть онлайн | Скачать   

11-01-2019 09:16 Мальчик с коньками Скачать торрент  

Мальчик с коньками
Страна: СССР
Производство: Ленфильм

Жанр: короткометражный
Год выпуска: 1962
Продолжительность: 00:32:52

Перевод: Не требуется
Cубтитры: нет
Оригинальная аудиодорожка: русский

Режиссер: Сергей Гиппиус

В ролях:
Игорь Селюженок, Пантелеймон Крымов...
Об актёрах подробней

Описание:
Шел мальчишка на каток, нес под мышкой коньки. И когда повстречался ему посторонний человек, хотел уже пройти мимо. Но человек попросил о помощи. У старого солдата болело сердце, дало о себе знать боевое ранение. И уже не думал мальчишка о катке, и о том, что опоздает. Он провожает пожилого человека домой, бегает за лекарствами, вызывает скорую… Мальчик спасал солдата. А значит, он тоже немножечко победил. Уезжая в больницу, ветеран пожалел, что не было у него на войне такого связного...

Исходник: DVB
Качество видео: SATRip
Формат видео: AVI

Видео: 688x512 (4:3), 25,000 кадров/сек, XviD ~ 1384 kbps avg, 0.157 bit/pixel
Аудио: 48 kHz, Dolby Digital AC3 2.0, 192 kbps

Раздача от:
Общее
Полное имя : Malchik.s.konkami.1962.SATRip_[New-team]_by_AVP_Studio.avi
Формат : AVI
Формат/Информация : Audio Video Interleave
Размер файла : 373 Мбайт
Продолжительность : 32 м. 51 с.
Общий поток : 1586 Кбит/сек
Программа кодирования : VirtualDubMod 1.5.10.3 | www.virtualdub-fr.org || (build 2550/release)
Библиотека кодирования : VirtualDubMod build 2550/release

Видео
Идентификатор : 0
Формат : MPEG-4 Visual
Профиль формата : Advanced Simple@L5
Настройки формата : BVOP1 / Custom Matrix
Параметр BVOP формата : 1
Параметр QPel формата : Нет
Параметр GMC формата : Без точки перехода
Параметр матрицы формата : Выборочная
Идентификатор кодека : XVID
Идентификатор кодека/Подсказка : XviD
Продолжительность : 32 м. 51 с.
Битрейт : 1384 Кбит/сек
Ширина : 688 пикселей
Высота : 512 пикселей
Соотношение сторон : 4:3
Частота кадров : 25,000 кадров/сек
Цветовое пространство : YUV
Субдискретизация насыщенности : 4:2:0
Битовая глубина : 8 бит
Тип развёртки : Прогрессивная
Метод сжатия : С потерями
Бит/(Пиксели*Кадры) : 0.157
Размер потока : 325 Мбайт (87%)
Библиотека кодирования : XviD 73

Аудио
Идентификатор : 1
Формат : AC-3
Формат/Информация : Audio Coding 3
Коммерческое название : Dolby Digital
Идентификатор кодека : 2000
Продолжительность : 32 м. 51 с.
Вид битрейта : Постоянный
Битрейт : 192 Кбит/сек
Каналы : 2 канала
Channel layout : L R
Частота : 48,0 КГц
Частота кадров : 31,250 кадров/сек (1536 SPF)
Битовая глубина : 16 бит
Метод сжатия : С потерями
Размер потока : 45,1 Мбайт (12%)
Выравнивание : Разделение по промежуткам
Продолжительность промежутка : 40 мс. (1,00 видеокадр)
Время предзагрузки промежутка : 500 мс



Скачать Мальчик с коньками через торрент http://picplus.ru/img/1901/11/496eadbe.png Скачать, смотреть онлайн Мальчик с коньками бесплантно в хорошем качестве Описание:Шел мальчишка на каток, нес под мышкой коньки. И когда повстречался ему посторонний человек, хотел уже пройти мимо. Но человек ... 10 10 1
Info! Золотая раздача, скачанное не засчитывается.
Торрент: Зарегистрирован [2019-01-11 09:16] · скачан: 3 раз
Статус: √ проверено
Размер: 373 MB
Как cкачать? Как скачать Мальчик с коньками через торрент | UTorrent

% Раздел Тема Автор DL S | L
Кино СССР [ 372 MB ] Мальчик с коньками | | SATRip-AVC от AVP Studio AVP Studio Скачать
1 | 0

28-11-2019 20:33  


Отключить вcю реклaмy на сайте, в т.ч. и в плеере онлайн просмотра!

    Дорогой пользователь! Огромная просьба, поблагодарите релизера, оцените раздачу и оставьте свои комментарий, если Вы скачали Мальчик с коньками через торрент бесплатно!!
    Комментировать посты могут только пользователи прошедшие не сложную регистрацию
    Показать сообщения:    


    Мальчик с коньками через торрент
    Скачать бесплатно Мальчик с коньками
    Мальчик с коньками скачать торрент
    Мальчик с коньками смотреть онлайн
    Cкачать фильм Мальчик с коньками бесплатно
    Мальчик с коньками скачать торрент в хорошем качестве
    Мальчик с коньками смотреть онлайн бесплатно в хорошем качестве
    Вы не можете начинать темы
    Вы не можете отвечать на сообщения
    Вы не можете редактировать свои сообщения
    Вы не можете удалять свои сообщения
    Вы не можете голосовать в опросах
    Вы не можете прикреплять файлы к сообщениям
    Вы можете скачивать файлы