Лицензия

MVO

1

1 сезон

Лицензия

Лицензия

13

MVO

1 сезон

Deluxe Edition

pack

Рекомендуем

30

Repack

ВАЖНО

ВАЖНО

Ghostwire

RePack

jed

RePack

fifa19

RePack

RDR2

RePack

NEED FOR SPEED™ PAYBACK

RePack

Кинопоиск HD

 Острые козырьки 6 сезон

6 сезон

FAR CRY 6

RePack

Лицензия

MVO

1

1 сезон

1 сезон

Лицензия

  

Игра престолов / Game of Thrones / Сезон 1 / Серии 10 из 10 (Тимоти Ван Паттен) [2011, Драма, фэнтези, приключения, UHD BDRemux 2160p] MVO [Кравец] [Dolby Vision]

Игра престолов через торрент piratbit.org

Размер: 233.28 GB | Добавлен: 3 года 8 мес. назад | Торрент скачан:21 раз
Смотреть онлайн Игра престолов | Скачать   

12-01-2019 02:11 Игра престолов Скачать торрент  

Игра престолов / Game of ThronesСезон 1
Год выпуска: 2011
Страна: США, Великобритания
Жанр: фэнтези, боевик, драма, мелодрама, приключения
Продолжительность: 10 x ~ 00:56:00
Перевод: Профессиональный многоголосый
Режиссер: Тимоти Ван Паттен, Брайан Кирк, Даниэль Минахан, Алан Тейлор
В ролях:

Питер Динклэйдж (Tyrion Lannister), Лина Хиди (Cersei Lannister), Эмилия Кларк (Daenerys Targaryen), Кит Харингтон (Jon Snow), Софи Тернер (Sansa Stark), Мэйси Уильямс (Arya Stark), Николай Костер-Вальдау (Jaime Lannister), Иэн Глен (Jorah Mormont), Алфи Аллен (Theon Greyjoy), Джон Брэдли (Samwell Tarly), Эйдан Гиллен (Petyr «Littlefinger» Baelish), Конлет Хилл (Lord Varys)
Описание:
К концу подходит время благоденствия, и лето, длившееся почти десятилетие, угасает. Вокруг средоточия власти Семи королевств, Железного трона, зреет заговор, и в это непростое время король решает искать поддержки у друга юности Эддарда Старка. В мире, где все - от короля до наемника - рвутся к власти, плетут интриги и готовы вонзить нож в спину, есть место и благородству, состраданию и любви. Между тем, никто не замечает пробуждение тьмы из легенд далеко на Севере - и лишь Стена защищает живых к югу от нее.
Рейтинг:

MPAA: R - Лицам до 17 лет обязательно присутствие взрослого
Качество: UHD BDRemux 2160p | Dolby Vision
Формат: MP4
Видео: HEVC, HDR, 51.7 Мбит/с, 3840x2160, 23.976 Кадр/с
Аудио: Русский (AC3, 6 ch, 640 Кбит/с)
Данный вид релизов (контейнер MP4) предназначен для встроенного в ТВ (соответственно, с поддержкой DV) плеер.
Т.Е. Можно использовать как USB flash/HDD, так и DLNA / Plex - подобные сервисы/программы. дополнительный-внешний плеер не обязателен.

Внимание!
На моделях LG 2016 возможны сюрпризы "через раз", 2017-2018 должно идти без сюрпризов )
* 01 серия: Зима близко / Winter Is Coming
* 02 серия: Королевский тракт / The Kingsroad
* 03 серия: Лорд Сноу / Lord Snow
* 04 серия: Калеки, бастарды и сломанные вещи / Cripples, Bastards, and Broken Things
* 05 серия: Волк и лев / The Wolf and the Lion
* 06 серия: Золотая корона / A Golden Crown
* 07 серия: Побеждай или умри / You Win or You Die
* 08 серия: Остриё / The Pointy End
* 09 серия: Бейелор / Baelor
* 10 серия: Пламя и кровь / Fire and Blood
Общее
Полное имя : Game.of.Thrones.S01.UHD.BDRemux.2160p.DV.IVA.RUS.ExKinoRay\Game.of.Thrones.S01E01.Winter.Is.Coming.mp4
Формат : MPEG-4
Профиль формата : Base Media / Version 2
Идентификатор кодека : mp42 (mp42/iso6/isom/msdh/dby1)
Размер файла : 24,0 Гбайт
Продолжительность : 1 ч. 1 м.
Общий поток : 55,7 Мбит/сек
Дата кодирования : UTC 2019-01-11 10:50:37
Дата пометки : UTC 2019-01-11 10:50:37

Видео #1
Идентификатор : 1
Формат : HEVC
Формат/Информация : High Efficiency Video Coding
Коммерческое название : HDR10
Профиль формата : Main 10@L5.1@High
Идентификатор кодека : hev1
Идентификатор кодека/Информация : High Efficiency Video Coding
Продолжительность : 1 ч. 1 м.
Битрейт : 51,7 Мбит/сек
Ширина : 3840 пикселей
Высота : 2160 пикселей
Соотношение сторон : 16:9
Режим частоты кадров : Постоянный
Частота кадров : 23,976 (24000/1001) кадра/сек
Цветовое пространство : YUV
Субдискретизация насыщенности : 4:2:0 (Type 2)
Битовая глубина : 10 бит
Бит/(Пиксели*Кадры) : 0.260
Размер потока : 22,3 Гбайт (93%)
Default : Нет
Дата кодирования : UTC 2019-01-11 10:50:37
Дата пометки : UTC 2019-01-11 10:50:37
Цветовой диапазон : Limited
Основные цвета : BT.2020
Характеристики трансфера : PQ
Коэффициенты матрицы : BT.2020 non-constant
MasteringDisplay_ColorPrimaries : BT.2020
MasteringDisplay_Luminance : min: 0.0020 cd/m2, max: 1000 cd/m2
Codec configuration box : hvcC

Видео #2
Идентификатор : 2
Формат : HEVC
Формат/Информация : High Efficiency Video Coding
Коммерческое название : HDR10
Профиль формата : Main 10@L5.1@High
Dolby Vision : 1.0, dvhe.07.06, EL+RPU
Идентификатор кодека : dvhe
Идентификатор кодека/Информация : High Efficiency Video Coding with Dolby Vision
Продолжительность : 1 ч. 1 м.
Битрейт : 3338 Кбит/сек
Ширина : 1920 пикселей
Высота : 1080 пикселей
Соотношение сторон : 16:9
Режим частоты кадров : Постоянный
Частота кадров : 23,976 (24000/1001) кадра/сек
Цветовое пространство : YUV
Субдискретизация насыщенности : 4:2:0 (Type 2)
Битовая глубина : 10 бит
Бит/(Пиксели*Кадры) : 0.067
Размер потока : 1,44 Гбайт (6%)
Default : Нет
Дата кодирования : UTC 2019-01-11 10:50:37
Дата пометки : UTC 2019-01-11 10:50:37
Цветовой диапазон : Limited
Основные цвета : BT.2020
Характеристики трансфера : PQ
Коэффициенты матрицы : BT.2020 non-constant
MasteringDisplay_ColorPrimaries : BT.2020
MasteringDisplay_Luminance : min: 0.0020 cd/m2, max: 1000 cd/m2
Codec configuration box : hvcC+dvcC

Аудио
Идентификатор : 3
Формат : AC-3
Формат/Информация : Audio Coding 3
Коммерческое название : Dolby Digital
Идентификатор кодека : ac-3
Продолжительность : 1 ч. 1 м.
Вид битрейта : Постоянный
Битрейт : 640 Кбит/сек
Каналы : 6 каналов
Channel layout : L R C LFE Ls Rs
Частота : 48,0 КГц
Частота кадров : 31,250 кадров/сек (1536 SPF)
Битовая глубина : 16 бит
Метод сжатия : С потерями
Размер потока : 282 Мбайт (1%)
Язык : Russian
ServiceKind/String : Complete Main
Default : Нет
Дата кодирования : UTC 2019-01-11 10:50:37
Дата пометки : UTC 2019-01-11 10:50:37



Скачать Игра престолов через торрент https://d.radikal.ru/d27/1901/56/59aac30461cb.png Скачать, смотреть онлайн Игра престолов бесплантно в хорошем качестве Описание: К концу подходит время благоденствия, и лето, длившееся почти десятилетие, угасает. Вокруг средоточия власти Семи королевств, ... 10 10 6
Info! Золотая раздача, скачанное не засчитывается.
Торрент: Зарегистрирован [2019-01-12 02:11] · скачан: 21 раз
Статус: √ проверено
Размер: 233.28 GB
Как cкачать? Как скачать Игра престолов через торрент | UTorrent

% Раздел Тема Автор DL S | L
Игра престолов [ 109.58 GB ] Игра престолов / Game of Thrones / Сезон: 1-8 из 8 / Серии: 1-73 из 73 | DUB | DLRip 1080p sheker187 Скачать
2 | 4
Игра престолов [ 322.59 GB ] Игра престолов / Game of Thrones / Сезон: 1-8 из 8 / Серии: 1-73 из 73 | LostFilm | DLRip 1080p sheker187 Скачать
2 | 1
Игра престолов [ 295.96 GB ] Игра престолов / Game of Thrones / Сезон 1 / Серии 10 из 10 | Лицензия BD EUR | 2160p sheker187 Скачать
1 | 0
Игра престолов [ 164.97 GB ] Игра престолов / Game of Thrones / Сезон 1 / Серии 10 из 10 | DUB | 2160p sheker187 Скачать
1 | 0
Игра престолов [ 297.23 GB ] Игра престолов / Game of Thrones / Сезон: 1-7 из 7 / Серии: 1-67 из 67 | LostFilm | 1080p sheker187 Скачать
1 | 0
Игра престолов [ 23.95 GB ] Игра престолов / Game of Thrones / Сезон: 8 / Серии: 1-6 из 6 | Amedia | 1080p bober100 Скачать
1 | 0
Игра престолов [ 5.06 GB ] Игра престолов / Game of Thrones / Сезон: 8 / Серии: 1-6 из 6 | Amedia | DLRip bober100 Скачать
1 | 0

28-11-2019 20:33  

Отключить вcю реклaмy на сайте

    Дорогой пользователь! Огромная просьба, поблагодарите релизера, оцените раздачу и оставьте свои комментарий, если Вы скачали Игра престолов через торрент бесплатно!!
    Комментировать посты могут только пользователи прошедшие не сложную регистрацию
    Показать сообщения:    


    Игра престолов через торрент
    Скачать бесплатно Игра престолов
    Игра престолов скачать торрент
    Игра престолов смотреть онлайн
    Cкачать фильм Игра престолов бесплатно
    Игра престолов скачать торрент в хорошем качестве
    Игра престолов смотреть онлайн бесплатно в хорошем качестве
    Вы не можете начинать темы
    Вы не можете отвечать на сообщения
    Вы не можете редактировать свои сообщения
    Вы не можете удалять свои сообщения
    Вы не можете голосовать в опросах
    Вы не можете прикреплять файлы к сообщениям
    Вы можете скачивать файлы