Доктор Стрэндж

Лицензия

Добыча

MVO

Дом дракона

1 сезон

Тор

Лицензия

Мэверик

Лицензия

Там, где раки поют

MVO

Властелин колец

1 сезон

Ultimate

pack

Рекомендуем

30

Repack

ВАЖНО

ВАЖНО

Ghostwire

RePack

jed

RePack

nioh2

RePack

RDR2

RePack

NEED FOR SPEED™ PAYBACK

RePack

скачать торрент

Кинопоиск HD

Острые козырьки 6 сезон

6 сезон

FAR CRY 6

RePack

скачать торрент

Лицензия

скачать торрент

MVO

1

1 сезон

скачать торрент

1 сезон

скачать торрент

Лицензия

  

Наш общий друг (Иван Пырьев) [1961, СССР, драма, комедия, SATRip-AVC от AVP Studio]

Наш общий друг через торрент piratbit.org

Размер: 1.46 GB | Добавлен: 3 года 8 мес. назад | Торрент скачан:9 раз
Смотреть онлайн Наш общий друг | Скачать   

12-01-2019 07:46 Наш общий друг Скачать торрент  

Наш общий друг
Страна: СССР
Производство: Мосфильм

Жанр: драма, комедия
Год выпуска: 1962
Продолжительность: 01:54:22

Перевод: Не требуется
Cубтитры: нет
Оригинальная аудиодорожка: русский

Режиссер: Иван Пырьев

В ролях:
Виктор Авдюшко, Наталья Фатеева, Аркадий Аркадьев, Екатерина Литвиненко, Борис Юрченко, Владимир Дорофеев, Нина Шорина, Григорий Тесля, Сергей Филиппов, Юрий Белов, Раиса Куркина...
Об актёрах подробней

Описание:
По повести Виктора Логинова «На то она и любовь...».
В каждом колхозе обязательно найдется «летописец». В кубанском колхозе таким летописцем был Лукьянюк. Именно его заметка о том, что телятница Лиза (Наталья Фатеева) моет молоком лицо, попала на страницы районной газеты. Честная и трудолюбивая девушка нашла защиту у парторга Прохора Корнийца (Виктор Авдюшко), а потом за чуткость и смелость полюбила его. Но парторг женат, имеет сына. И чтобы не причинять боль любимому человеку, Лиза покидает колхоз.

Исходник: DVB
Качество видео: SATRip-AVC
Формат видео: MKV

Видео: 704->744x558 (4:3), 25,000 кадров/сек, H264 ~ 1632 kbps avg, 0.166 bit/pixel
Аудио: 48 kHz, Dolby Digital AC3 2.0, 192 kbps

Раздача от:
Общее
Полное имя : Nash.obshchiy.drug.1962.SATRip-AVC_[New-team]_by_AVP_Studio.mkv
Формат : Matroska
Версия формата : Version 2
Размер файла : 1,46 Гбайт
Продолжительность : 1 ч. 54 м.
Общий поток : 1826 Кбит/сек
Дата кодирования : UTC 2019-01-10 18:24:01
Программа кодирования : mkvmerge v6.1.0 ('Old Devil') built on Mar 4 2013 09:10:42
Библиотека кодирования : libebml v1.3.0 + libmatroska v1.4.0

Видео
Идентификатор : 1
Формат : AVC
Формат/Информация : Advanced Video Codec
Профиль формата : High@L4.1
Настройки формата : CABAC / 10 Ref Frames
Параметр CABAC формата : Да
Параметр RefFrames формата : 10 кадров
Идентификатор кодека : V_MPEG4/ISO/AVC
Продолжительность : 1 ч. 54 м.
Битрейт : 1632 Кбит/сек
Ширина : 704 пикселя
Высота : 558 пикселей
Соотношение сторон : 4:3
Режим частоты кадров : Постоянный
Частота кадров : 25,000 кадров/сек
Цветовое пространство : YUV
Субдискретизация насыщенности : 4:2:0
Битовая глубина : 8 бит
Тип развёртки : Прогрессивная
Бит/(Пиксели*Кадры) : 0.166
Размер потока : 1,28 Гбайт (87%)
Библиотека кодирования : x264 core 157 r2932 303c484
Настройки программы : cabac=1 / ref=10 / deblock=1:-2:-1 / analyse=0x3:0x113 / me=umh / subme=10 / psy=1 / psy_rd=1.00:0.00 / mixed_ref=1 / me_range=32 / chroma_me=1 / trellis=2 / 8x8dct=1 / cqm=0 / deadzone=21,11 / fast_pskip=1 / chroma_qp_offset=-2 / threads=6 / lookahead_threads=1 / sliced_threads=0 / nr=0 / decimate=0 / interlaced=0 / bluray_compat=0 / constrained_intra=0 / bframes=8 / b_pyramid=2 / b_adapt=2 / b_bias=0 / direct=3 / weightb=1 / open_gop=0 / weightp=2 / keyint=250 / keyint_min=25 / scenecut=40 / intra_refresh=0 / rc=2pass / mbtree=0 / bitrate=1632 / ratetol=1.0 / qcomp=0.60 / qpmin=0 / qpmax=69 / qpstep=4 / cplxblur=20.0 / qblur=0.5 / ip_ratio=1.40 / pb_ratio=1.30 / aq=1:1.00
Default : Да
Forced : Нет

Аудио
Идентификатор : 2
Формат : AC-3
Формат/Информация : Audio Coding 3
Коммерческое название : Dolby Digital
Идентификатор кодека : A_AC3
Продолжительность : 1 ч. 54 м.
Вид битрейта : Постоянный
Битрейт : 192 Кбит/сек
Каналы : 2 канала
Channel layout : L R
Частота : 48,0 КГц
Частота кадров : 31,250 кадров/сек (1536 SPF)
Битовая глубина : 16 бит
Метод сжатия : С потерями
Размер потока : 157 Мбайт (11%)
Default : Да
Forced : Нет



Скачать Наш общий друг через торрент http://picplus.ru/img/1901/12/3ec3f5dd.png Скачать, смотреть онлайн Наш общий друг бесплантно в хорошем качестве Описание:По повести Виктора Логинова «На то она и любовь...».В каждом колхозе обязательно найдется «летописец». В кубанском колхозе таким ... 10 10 1
Info! Золотая раздача, скачанное не засчитывается.
Торрент: Зарегистрирован [2019-01-12 07:46] · скачан: 9 раз
Статус: √ проверено
Размер: 1.46 GB
Как cкачать? Как скачать Наш общий друг через торрент | UTorrent

% Раздел Тема Автор DL S | L
Кино СССР [ 1.09 GB ] Наш общий друг | | SATRip от AVP Studio AVP Studio Скачать
1 | 0
Кино СССР [ 1.46 GB ] Наш общий друг | | SATRip от AVP Studio AVP Studio Скачать
1 | 0

28-11-2019 20:33  

Отключить вcю реклaмy на сайте

12-01-2019 08:31 Наш общий друг Скачать торрент  

Спасибо handshake



    Дорогой пользователь! Огромная просьба, поблагодарите релизера, оцените раздачу и оставьте свои комментарий, если Вы скачали Наш общий друг через торрент бесплатно!!
    Комментировать посты могут только пользователи прошедшие не сложную регистрацию
    Показать сообщения:    


    Наш общий друг через торрент
    Скачать бесплатно Наш общий друг
    Наш общий друг скачать торрент
    Наш общий друг смотреть онлайн
    Cкачать фильм Наш общий друг бесплатно
    Наш общий друг скачать торрент в хорошем качестве
    Наш общий друг смотреть онлайн бесплатно в хорошем качестве
    Вы не можете начинать темы
    Вы не можете отвечать на сообщения
    Вы не можете редактировать свои сообщения
    Вы не можете удалять свои сообщения
    Вы не можете голосовать в опросах
    Вы не можете прикреплять файлы к сообщениям
    Вы можете скачивать файлы