1 сезон

3 сезон

iTunes

1

iTunes

DUB Netflix

iTunes

13

1 сезон

RePack

30

Deluxe

pack

Легкие деньги

ВАЖНО

ИГРА 18+

pack

RePack

MK11

RePack

jed

RePack

fifa19

RePack

RDR2

RePack

NEED FOR SPEED™ PAYBACK

4 сезон

9 сезон

Бесстыжие 9 сезон

Все сериалы

все сериалы на PB.wtf

RePack

FAR CRY 5

Anonymous, добрый день, мы не успеваем до 1 числа собрать деньги на оплату серверов, помогите нам пожалуйста в это трудное время. В качестве благодарности мы отключим Вам всю рекламу на сайте (укажите свой ник в строку Ваше имя)!

×
  
Magnet ссылка

Сладкая жизнь / Сезон: 1 / Серии: 1-6 из 6 (Андрей Джунковский, Давид Кочаров) [2014 г., драма, комедия, WEB-DLRip, Оригинальный] piratbit.org

Сладкая жизнь через торрент piratbit.org

Размер: 3.76 GB | Добавлен: 2 года 5 мес. назад | Торрент скачан:282 раза
Скачать  

16-01-2019 03:40 Сладкая жизнь Скачать торрент  

Сладкая жизнь
Год выпуска: 2014
Страна: Россия | Good Story media
Жанр: драма, комедия
Продолжительность: ~ 00:44:00
Перевод: Не требуется

Режиссер: Андрей Джунковский, Давид Кочаров

Премьера в мире: 15 мая 2014



В ролях: Марта Носова, Никита Панфилов, Лукерья Ильяшенко, Анастасия Меськова, Мария Шумакова, Роман Маякин, Антон Денисенко, Эдуард Мацаберидзе, Анатолий Горячев, Сергей Юшкевич

Описание: В центре истории «Сладкой жизни» шестеро успешных тридцатилетних москвичей, чья жизнь меняется с появлением главной героини Саши — матери-одиночки из Перми, зарабатывающей на жизнь в ночном клубе танцами go-go. После неприятного инцидента на дне рождения местного мажора Саша отправляет ребенка к бабушке, а сама едет в гости к московской подруге Лере. Когда-то они вместе танцевали в кордебалете Большого театра. Действие сериала длится всего 8 дней, но за это время жизнь каждого из героев повернется на 180 градусов. И каждый из участников событий успеет показать себя с самой неожиданной стороны: в диапазоне от абсолютного свинства до настоящего благородства.

Доп. информация: скриншот  Версия без цензуры!

Качество: WEB-DLRip
Формат: AVI
Видео кодек: XviD
Аудио кодек: AC3
Видео: XviD, ~ 1750 Кбит/с, 720x400
Аудио#1: AC3, 6 ch, 48.0 KHz, 384 Кбит/с




Имя файла: Sladkaya.zhizn.S01E01.avi
Формат файла: .avi (AVI)
Размер файла: 680,97 MB (714 049 536 bytes)
Длительность: 46mn 44s
Навигация по главам: Нет
Битрейт (все потоки): 2 037 Kbps
Создан при помощи: VirtualDubMod 1.5.10.3 | www.virtualdub-fr.org || (build 2550/release)
Обложка: Отсутствует

Название: Sladkaya.zhizn.tahiy

Тип потока: Видео
Длительность: 00:46:44
Кодек: MPEG-4 Visual
Кодек/профиль: Advanced Simple@L5
Кодек/ID: XVID
Размеры изображения: 720 x 400 (16:9)
Частота кадров: 25.000 fps
Размер потока: 549 MiB (81%)
Битрейт: 1 643 Kbps
Метод сжатия: Lossy
Библиотека кодирования: XviD 1.2.1 (UTC 2008-12-04)
Цветовое пространство: YUV
Тип развёртки: Progressive
Колориметрия: 4:2:0
Глубина: 8 bits

Тип потока: Звук #1
Длительность: 00:46:44.960
Кодек: AC-3
Кодек/описание: Audio Coding 3
Кодек/ID: 2000
Частота дискретизации: 48.0 KHz
Каналов: 6 channels
Битрейт: 384 Kbps
Битрейт/тип: Constant
Размер потока: 128 MiB (19%)
Глубина: 16 bits
Метод сжатия: Lossy

piratbit.org



Скачать Сладкая жизнь через торрент https://pic1.kartinco.top/images/12/lz4nk.jpg Скачать фильм Сладкая жизнь через торрент бесплантно в хорошем качестве Описание: В центре истории «Сладкой жизни» шестеро успешных тридцатилетних москвичей, чья жизнь меняется с появлением главной героини Саши ... 10 10 4
Торрент: Зарегистрирован [2019-01-16 03:40] · скачан: 282 раз
Статус: √ проверено
Размер: 3.76 GB
Как cкачать? Как скачать Сладкая жизнь через торрент | UTorrent

28-11-2019 20:33  

Отключить всю рекламу на сайте


    Дорогой пользователь! Огромная просьба, поблагодарите релизера, оцените раздачу и оставьте свои комментарий, если Вы скачали Сладкая жизнь через торрент бесплатно! Внесите свою лепту в развитие PiratBit!
    Комментировать посты могут только пользователи прошедшие не сложную регистрацию
    Показать сообщения:    

    Сладкая жизнь через торрент
    Скачать бесплатно Сладкая жизнь
    Сладкая жизнь скачать торрент
    Сладкая жизнь смотреть онлайн
    Cкачать фильм Сладкая жизнь бесплатно
    Сладкая жизнь скачать торрент в хорошем качестве
    Сладкая жизнь смотреть онлайн бесплатно в хорошем качестве


    Вы не можете начинать темы
    Вы не можете отвечать на сообщения
    Вы не можете редактировать свои сообщения
    Вы не можете удалять свои сообщения
    Вы не можете голосовать в опросах
    Вы не можете прикреплять файлы к сообщениям
    Вы можете скачивать файлы