1 сезон

3 сезон

iTunes

1

iTunes

DUB Netflix

iTunes

13

1 сезон

RePack

30

Deluxe

pack

Легкие деньги

ВАЖНО

ИГРА 18+

pack

RePack

MK11

RePack

jed

RePack

fifa19

RePack

RDR2

RePack

NEED FOR SPEED™ PAYBACK

4 сезон

9 сезон

Бесстыжие 9 сезон

Все сериалы

все сериалы на PB.wtf

RePack

FAR CRY 5

Anonymous, доброе утро, мы не успеваем до 1 числа собрать деньги на оплату серверов, помогите нам пожалуйста в это трудное время. В качестве благодарности мы отключим Вам всю рекламу на сайте (укажите свой ник в строку Ваше имя)!

×
  
Magnet ссылка

Сладкая жизнь / Сезон: 2 / Серии: 1-8 из 8 (Андрей Джунковский, Давид Кочаров) [2015 г., драма, комедия, WEB-DLRip, Оригинальный] piratbit.org

Сладкая жизнь через торрент piratbit.org

Размер: 4.81 GB | Добавлен: 2 года 4 мес. назад | Торрент скачан:191 раз
Скачать  

16-01-2019 03:55 Сладкая жизнь Скачать торрент  

Сладкая жизнь
Год выпуска: 2015
Страна: Россия | Good Story media
Жанр: драма, комедия
Продолжительность: ~ 00:44:00
Перевод: Не требуется

Режиссер: Андрей Джунковский, Давид Кочаров

Премьера в мире: 15 мая 2014



В ролях: Марта Носова, Никита Панфилов, Лукерья Ильяшенко, Анастасия Меськова, Мария Шумакова, Роман Маякин, Антон Денисенко, Эдуард Мацаберидзе, Анатолий Горячев, Сергей Юшкевич

Описание: В центре истории «Сладкой жизни» шестеро успешных тридцатилетних москвичей, чья жизнь меняется с появлением главной героини Саши — матери-одиночки из Перми, зарабатывающей на жизнь в ночном клубе танцами go-go. После неприятного инцидента на дне рождения местного мажора Саша отправляет ребенка к бабушке, а сама едет в гости к московской подруге Лере. Когда-то они вместе танцевали в кордебалете Большого театра. Действие сериала длится всего 8 дней, но за это время жизнь каждого из героев повернется на 180 градусов. И каждый из участников событий успеет показать себя с самой неожиданной стороны: в диапазоне от абсолютного свинства до настоящего благородства.

Доп. информация: скриншот  Версия без цензуры!

Качество: WEB-DLRip
Формат: AVI
Видео кодек: XviD
Аудио кодек: AC3
Видео: MPEG-4, ~ 1750 Кбит/с, 720x400
Аудио#1: MPEG Audio, 2 ch, 48 KHz, 192 Кбит/с




Имя файла: Sladkaya.zhizn.S02E01.avi
Формат файла: .avi (AVI)
Размер файла: 684,51 MB (717 764 052 bytes)
Длительность: 48mn 1s
Навигация по главам: Нет
Битрейт (все потоки): 1 993 Kbps
Создан при помощи: TMPGEnc Video Mastering Works 5 Version. 5.0.6.38
Использовалась библиотека: TMPGEnc Video Mastering Works 5 Version. 5.0.6.38
Обложка: Отсутствует

Название: Sladkaya.zhizn.S02E01

Тип потока: Видео
Длительность: 00:48:01
Кодек: MPEG-4 Visual
Кодек/профиль: Advanced Simple@L5
Кодек/ID: XVID
Размеры изображения: 720 x 400 (16:9)
Частота кадров: 25.000 fps
Размер потока: 616 MiB (90%)
Битрейт: 1 793 Kbps
Метод сжатия: Lossy
Библиотека кодирования: XviD 73
Цветовое пространство: YUV
Тип развёртки: Progressive
Колориметрия: 4:2:0
Глубина: 8 bits

Тип потока: Звук #1
Длительность: 00:48:01.080
Кодек: MPEG Audio
Кодек/профиль: Layer 3
Кодек/ID: 55
Частота дискретизации: 48.0 KHz
Каналов: 2 channels
Битрейт: 192 Kbps
Битрейт/тип: Constant
Размер потока: 65.9 MiB (10%)
Метод сжатия: Lossy

piratbit.org



Скачать Сладкая жизнь через торрент https://pic1.kartinco.top/images/12/b362l.jpg Скачать фильм Сладкая жизнь через торрент бесплантно в хорошем качестве Описание: В центре истории «Сладкой жизни» шестеро успешных тридцатилетних москвичей, чья жизнь меняется с появлением главной героини Саши ... 10 10 3
Торрент: Зарегистрирован [2019-01-31 13:49] · скачан: 191 раз
Статус: √ проверено
Размер: 4.81 GB
Как cкачать? Как скачать Сладкая жизнь через торрент | UTorrent



Последний раз редактировалось: AlexSAW (2019-01-31 13:57), всего редактировалось 2 раз(а)

28-11-2019 20:33  

Отключить всю рекламу на сайте

31-01-2019 13:52 Сладкая жизнь Скачать торрент  

Раздачу пришлось обновить, версия не та оказалась.piratbit.org



25-09-2019 16:21 Сладкая жизнь Скачать торрент  

раздача то с цензурой! всё запиканоpiratbit.org



    Дорогой пользователь! Огромная просьба, поблагодарите релизера, оцените раздачу и оставьте свои комментарий, если Вы скачали Сладкая жизнь через торрент бесплатно! Внесите свою лепту в развитие PiratBit!
    Комментировать посты могут только пользователи прошедшие не сложную регистрацию
    Показать сообщения:    

    Сладкая жизнь через торрент
    Скачать бесплатно Сладкая жизнь
    Сладкая жизнь скачать торрент
    Сладкая жизнь смотреть онлайн
    Cкачать фильм Сладкая жизнь бесплатно
    Сладкая жизнь скачать торрент в хорошем качестве
    Сладкая жизнь смотреть онлайн бесплатно в хорошем качестве


    Вы не можете начинать темы
    Вы не можете отвечать на сообщения
    Вы не можете редактировать свои сообщения
    Вы не можете удалять свои сообщения
    Вы не можете голосовать в опросах
    Вы не можете прикреплять файлы к сообщениям
    Вы можете скачивать файлы