Достать ножи: Стеклянная луковица

MVO

Добыча

Дубляж

Уэнсдэй

1 сезон

Тор

Дубляж

13 клиническая

1 сезон

Жестокая ночь

MVO

Одни из нас

1 сезон

Deluxe

pack

Рекомендуем

30

Пиратка

ВАЖНО

ВАЖНО

Ghostwire

Пиратка

jed

RePack

nioh2

RePack

RDR2

RePack

NEED FOR SPEED™ PAYBACK

RePack

скачать торрент

Кинопоиск HD

Острые козырьки 6 сезон

6 сезон

FAR CRY 6

RePack

скачать торрент

Лицензия

скачать торрент

MVO

1

1 сезон

скачать торрент

1 сезон

скачать торрент

Лицензия

  

Лига справедливости / Justice League (Зак Снайдер) [2017, фантастика, фэнтези, боевик, UHD BDRemux 2160p] Дубляж [IMAX Edition] [Dolby Vision]

Лига справедливости через торрент piratbit.org

Размер: 43.74 GB | Добавлен: 4 года назад | Торрент скачан:51 раз
Смотреть онлайн | Скачать | Поддержите нас   

16-01-2019 11:05 Лига справедливости Скачать торрент  

Лига справедливости / Justice League«Нельзя спасти мир в одиночку» Год выпуска: 2017
Страна: США, Великобритания, Канада
Жанр: фантастика, фэнтези, боевик, приключения
Продолжительность: 02:00:02
Перевод: Дублированный
Режиссер: Зак Снайдер
В ролях:

Бен Аффлек (Batman / Bruce Wayne), Генри Кавилл (Superman / Clark Kent), Эми Адамс (Lois Lane), Галь Гадот (Wonder Woman / Diana Prince), Эзра Миллер (The Flash / Barry Allen), Джейсон Момоа (Aquaman / Arthur Curry), Рэй Фишер (Cyborg / Victor Stone), Джереми Айронс (Alfred), Дайан Лэйн (Martha Kent), Конни Нильсен (Queen Hippolyta), Дж.К. Симмонс (Commissioner Gordon), Киран Хайндс (Steppenwolf, озвучка)
Описание:
Брюс Уэйн, вдохновленный самопожертвованием Супермена, вновь обретает веру в человечество. Он заручается поддержкой новой союзницы, Дианы Принс, чтобы сразиться с еще более могущественным противником. Бэтмен и Чудо-Женщина быстро набирают команду сверхлюдей для борьбы с пробудившейся угрозой. Но несмотря на уникальный состав отряда супергероев - Бэтмен, Чудо-Женщина, Аквамэн, Киборг и Флэш, - быть может, спасать планету от вторжения катастрофических масштабов уже слишком поздно.
Рейтинг:

MPAA: PG-13 - Детям до 13 лет просмотр не желателен
Качество: UHD BDRemux 2160p | Dolby Vision
Формат: MP4
Видео: HEVC, HDR, 51.6 Мбит/с, 3840x2160, 23.976 Кадр/с
Аудио: Dolby Digital Audio Russian 448 kbps 5.1 / 48 kHz / 448 kbps
Данный вид релизов (контейнер MP4) предназначен для встроенного в ТВ (соответственно, с поддержкой DV) плеер.
Т.Е. Можно использовать как USB flash/HDD, так и DLNA / Plex - подобные сервисы/программы. дополнительный-внешний плеер не обязателен.

Внимание!
На моделях LG 2016 возможны сюрпризы "через раз", 2017-2018 должно идти без сюрпризов )
Общее
Полное имя : Justice.League.2017.UHD.BDRemux.2160p.DV.IVA.RUS.ExKinoRay.mp4
Формат : MPEG-4
Профиль формата : Base Media / Version 2
Идентификатор кодека : mp42 (mp42/iso6/isom/msdh/dby1)
Размер файла : 43,7 Гбайт
Продолжительность : 2 ч. 0 м.
Общий поток : 52,2 Мбит/сек
Дата кодирования : UTC 2019-01-16 01:22:23
Дата пометки : UTC 2019-01-16 01:22:23

Видео #1
Идентификатор : 1
Формат : HEVC
Формат/Информация : High Efficiency Video Coding
Коммерческое название : HDR10
Профиль формата : Main 10@L5.1@High
Идентификатор кодека : hev1
Идентификатор кодека/Информация : High Efficiency Video Coding
Продолжительность : 2 ч. 0 м.
Битрейт : 51,6 Мбит/сек
Ширина : 3840 пикселей
Высота : 2160 пикселей
Соотношение сторон : 16:9
Режим частоты кадров : Постоянный
Частота кадров : 23,976 (24000/1001) кадра/сек
Цветовое пространство : YUV
Субдискретизация насыщенности : 4:2:0 (Type 2)
Битовая глубина : 10 бит
Бит/(Пиксели*Кадры) : 0.260
Размер потока : 43,3 Гбайт (99%)
Default : Нет
Дата кодирования : UTC 2019-01-16 01:22:23
Дата пометки : UTC 2019-01-16 01:22:23
Цветовой диапазон : Limited
Основные цвета : BT.2020
Характеристики трансфера : PQ
Коэффициенты матрицы : BT.2020 non-constant
MasteringDisplay_ColorPrimaries : Display P3
MasteringDisplay_Luminance : min: 0.0050 cd/m2, max: 4000 cd/m2
MaxCLL : 1016 cd/m2
MaxFALL : 342 cd/m2
Codec configuration box : hvcC

Видео #2
Идентификатор : 2
Формат : HEVC
Формат/Информация : High Efficiency Video Coding
Коммерческое название : HDR10
Профиль формата : Main 10@L5.1@High
Dolby Vision : 1.0, dvhe.07.06, EL+RPU
Идентификатор кодека : dvhe
Идентификатор кодека/Информация : High Efficiency Video Coding with Dolby Vision
Продолжительность : 2 ч. 0 м.
Битрейт : 66,6 Кбит/сек
Ширина : 1920 пикселей
Высота : 1080 пикселей
Соотношение сторон : 16:9
Режим частоты кадров : Постоянный
Частота кадров : 23,976 (24000/1001) кадра/сек
Цветовое пространство : YUV
Субдискретизация насыщенности : 4:2:0 (Type 2)
Битовая глубина : 10 бит
Бит/(Пиксели*Кадры) : 0.001
Размер потока : 57,2 Мбайт (0%)
Default : Нет
Дата кодирования : UTC 2019-01-16 01:22:23
Дата пометки : UTC 2019-01-16 01:22:23
Цветовой диапазон : Limited
Основные цвета : BT.2020
Характеристики трансфера : PQ
Коэффициенты матрицы : BT.2020 non-constant
MasteringDisplay_ColorPrimaries : Display P3
MasteringDisplay_Luminance : min: 0.0050 cd/m2, max: 4000 cd/m2
Codec configuration box : hvcC+dvcC

Аудио
Идентификатор : 3
Формат : AC-3
Формат/Информация : Audio Coding 3
Коммерческое название : Dolby Digital
Идентификатор кодека : ac-3
Продолжительность : 2 ч. 0 м.
Вид битрейта : Постоянный
Битрейт : 448 Кбит/сек
Каналы : 6 каналов
Channel layout : L R C LFE Ls Rs
Частота : 48,0 КГц
Частота кадров : 31,250 кадров/сек (1536 SPF)
Битовая глубина : 16 бит
Метод сжатия : С потерями
Размер потока : 385 Мбайт (1%)
Язык : Russian
ServiceKind/String : Complete Main
Default : Нет
Дата кодирования : UTC 2019-01-16 01:22:23
Дата пометки : UTC 2019-01-16 01:22:23



Скачать Лига справедливости через торрент https://d.radikal.ru/d04/1901/99/d194788b5784.png Скачать, смотреть онлайн Лига справедливости бесплантно в хорошем качестве Описание: Брюс Уэйн, вдохновленный самопожертвованием Супермена, вновь обретает веру в человечество. Он заручается поддержкой новой ... 10 10 3
Торрент: Зарегистрирован [2019-01-16 11:05] · скачан: 51 раз
Статус: √ проверено
Размер: 43.74 GB
Как cкачать? Как скачать Лига справедливости через торрент | UTorrent

% Раздел Тема Автор DL S | L
Ultra HD (UHD: 2K, 4K, 8K) [ 60.99 GB ] Лига справедливости / Justice League | Дубляж | 2160p sheker187 Скачать
1 | 0
Фильмы 2021 [DVDrip, WEB-DLRip, HDrip] (DUB, MVO) [ 3.95 GB ] Лига справедливости Зака Снайдера / Zack Snyder's Justice League | Мосфильм-Мастер | BDRip Twi7ter Скачать
30 | 1
Фильмы 2021 [DVDrip, WEB-DLRip, HDrip] (DUB, MVO) [ 2.95 GB ] Лига справедливости Зака Снайдера / Zack Snyder's Justice League | Мосфильм-Мастер | BDRip Twi7ter Скачать
8 | 6
Фильмы 2021 [DVDrip, WEB-DLRip, HDrip] (DUB, MVO) [ 2.18 GB ] Лига справедливости Зака Снайдера / Zack Snyder's Justice League | Мосфильм-Мастер | BDRip Twi7ter Скачать
29 | 0
Фильмы 2021 [DVDrip, WEB-DLRip, HDrip] (DUB, MVO) [ 2.18 GB ] Лига справедливости Зака Снайдера / Zack Snyder's Justice League | Мосфильм-Мастер | BDRip bober100 Скачать
2 | 0
Фильмы [HD 720p, 1080p] (Хороший звук DUB, MVO) [ 17.57 GB ] Лига справедливости Зака Снайдера / Zack Snyder's Justice League | Мосфильм-Мастер | 1080p bober100 Скачать
2 | 0
Фильмы 2021 [DVDrip, WEB-DLRip, HDrip] (DUB, MVO) [ 3 GB ] Лига справедливости Зака Снайдера / Zack Snyder's Justice League | Мосфильм-Мастер | BDRip bober100 Скачать
2 | 0

28-11-2019 20:33  


Отключить вcю реклaмy на сайте, в т.ч. и в плеере онлайн просмотра!

    Дорогой пользователь! Огромная просьба, поблагодарите релизера, оцените раздачу и оставьте свои комментарий, если Вы скачали Лига справедливости через торрент бесплатно!!
    Комментировать посты могут только пользователи прошедшие не сложную регистрацию
    Показать сообщения:    


    Лига справедливости через торрент
    Скачать бесплатно Лига справедливости
    Лига справедливости скачать торрент
    Лига справедливости смотреть онлайн
    Cкачать фильм Лига справедливости бесплатно
    Лига справедливости скачать торрент в хорошем качестве
    Лига справедливости смотреть онлайн бесплатно в хорошем качестве
    Вы не можете начинать темы
    Вы не можете отвечать на сообщения
    Вы не можете редактировать свои сообщения
    Вы не можете удалять свои сообщения
    Вы не можете голосовать в опросах
    Вы не можете прикреплять файлы к сообщениям
    Вы можете скачивать файлы
    Лига справедливости / Justice League [2017, фантастика, фэнтези, боевик, UHD BDRemux 2160p] Дубляж [IMAX Edition] [Dolby Vision] смотреть онлайн, скачать торрент picoco.icu