Достать ножи: Стеклянная луковица

MVO

Добыча

Дубляж

Уэнсдэй

1 сезон

Тор

Дубляж

13 клиническая

1 сезон

Жестокая ночь

MVO

Одни из нас

1 сезон

Deluxe

pack

Рекомендуем

30

Пиратка

ВАЖНО

ВАЖНО

Ghostwire

Пиратка

jed

RePack

nioh2

RePack

RDR2

RePack

NEED FOR SPEED™ PAYBACK

RePack

скачать торрент

Кинопоиск HD

Острые козырьки 6 сезон

6 сезон

FAR CRY 6

RePack

скачать торрент

Лицензия

скачать торрент

MVO

1

1 сезон

скачать торрент

1 сезон

скачать торрент

Лицензия

  

Форрест Гамп / Forrest Gump (Роберт Земекис) [1994, драма, мелодрама, экранизация UHD BDRemux 2160p] MVO [Dolby Vision TV]

Форрест Гамп через торрент piratbit.org

Качают: 1 [ 0 KB/s ]
Размер: 73.9 GB | Добавлен: 4 года назад | Торрент скачан:13 раз
Смотреть онлайн | Скачать | Поддержите нас   

17-01-2019 04:01 Форрест Гамп Скачать торрент  

Форрест Гамп / Forrest Gump«Мир уже никогда не будет прежним, после того как вы увидите его глазами Форреста Гампа»
Год выпуска: 1994
Страна: США
Жанр: драма, мелодрама, экранизация
Продолжительность: 02:22:08
Перевод: Профессиональный многоголосый
Режиссер: Роберт Земекис
В ролях:

Том Хэнкс (Forrest Gump), Робин Райт (Jenny Curran), Салли Филд (Mrs. Gump), Гэри Синиз (Lieutenant Dan Taylor), Майкелти Уильямсон (Bubba Blue), Хэйли Джоэл Осмент (Forrest Junior), Майкл Коннер Хэмпфри (Young Forrest), Ханна Р. Холл (Young Jenny Curran), Сэм Андерсон (Principal), Шиван Фэллон (School Bus Driver), Ребекка Уильямс (Nurse at Park Bench), Харольд Дж. Хертэм (Doctor)
Описание:
От лица главного героя Форреста Гампа, слабоумного безобидного человека с благородным и открытым сердцем, рассказывается история его необыкновенной жизни. Фантастическим образом превращается он в известного футболиста, героя войны, преуспевающего бизнесмена. Он становится миллиардером, но остается таким же бесхитростным, глупым и добрым. Форреста ждет постоянный успех во всем, а он любит девочку, с которой дружил в детстве, но взаимность приходит слишком поздно.
Рейтинг:

MPAA: PG-13 - Детям до 13 лет просмотр не желателен
Качество: UHD BDRemux 2160p | Dolby Vision TV
Контейнер: MP4
Видео: HEVC, 66.3 Mбит/с, 3840x2160, 23.976 Кадр/с
Аудио : Русский (АС3, 6 ch, 640 Кбит/с) | MVO, Позитив-мультимедиа
Данный вид релизов (контейнер MP4) предназначен для встроенного в ТВ (соответственно, с поддержкой DV) плеер.
Т.Е. Можно использовать как USB flash/HDD, так и DLNA / Plex - подобные сервисы/программы. дополнительный-внешний плеер не обязателен.

Внимание!
На моделях LG 2016 возможны сюрпризы "через раз", 2017-2018 должно идти без сюрпризов )
3 приза Национального совета обозревателей — за фильм (поровну с «Криминальным чтивом»), главную и второплановую (Гэри Синиз) мужские роли, «Аманда» в Норвегии и «Чешский лев» в Чехии за лучший иностранный фильм.

Оскар, 1995 год
Победитель (6):
Лучший фильм
Лучшая мужская роль (Том Хэнкс)
Лучший режиссер (Роберт Земекис)
Лучший адаптированный сценарий
Лучший монтаж
Лучшие визуальные эффекты
Номинации (7):
Лучшая мужская роль второго плана (Гэри Синиз)
Лучшая работа оператора
Лучшие декорации
Лучший звук
Лучший монтаж звука
Лучший грим
Лучший оригинальный саундтрек

Золотой глобус, 1995 год
Победитель (3):
Лучший фильм (драма)
Лучшая мужская роль (драма) (Том Хэнкс)
Лучший режиссер (Роберт Земекис)
Номинации (4):
Лучшая мужская роль второго плана (Гэри Синиз)
Лучшая женская роль второго плана (Робин Райт)
Лучший сценарий
Лучший саундтрек

Премия канала «MTV», 1995 год
Номинации (3):
Лучший фильм
Прорыв года (Майкелти Уильямсон)
Лучшая мужская роль (Том Хэнкс)

Британская академия, 1995 год
Победитель (1):
Лучшие визуальные эффекты
Номинации (7):
Лучший фильм
Лучшая мужская роль (Том Хэнкс)
Лучшая женская роль второго плана (Салли Филд)
Лучший адаптированный сценарий
Лучшая работа оператора
Лучший монтаж
Премия имени Дэвида Лина за достижения в режиссуре (Роберт Земекис)

Сатурн, 1995 год
Победитель (2):
Лучший фэнтези-фильм
Лучший актер второго плана (Гэри Синиз)
Номинации (6):
Лучший режиссер (Роберт Земекис)
Лучший актер (Том Хэнкс)
Лучшая актриса второго плана (Робин Райт)
Лучший сценарий
Лучшие спецэффекты
Лучшая музыка
Общее
Полное имя : Forrest.Gump.1994.UHD.BDRemux.2160p.DV.IVA.RUS.ExKinoRay.mp4
Формат : MPEG-4
Профиль формата : Base Media / Version 2
Идентификатор кодека : mp42 (mp42/iso6/isom/msdh/dby1)
Размер файла : 73,9 Гбайт
Продолжительность : 2 ч. 22 м.
Общий поток : 74,4 Мбит/сек
Дата кодирования : UTC 2019-01-16 17:00:24
Дата пометки : UTC 2019-01-16 17:00:24

Видео #1
Идентификатор : 1
Формат : HEVC
Формат/Информация : High Efficiency Video Coding
Коммерческое название : HDR10
Профиль формата : Main 10@L5.1@High
Идентификатор кодека : hev1
Идентификатор кодека/Информация : High Efficiency Video Coding
Продолжительность : 2 ч. 22 м.
Битрейт : 66,3 Мбит/сек
Ширина : 3840 пикселей
Высота : 2160 пикселей
Соотношение сторон : 16:9
Режим частоты кадров : Постоянный
Частота кадров : 23,976 (24000/1001) кадра/сек
Цветовое пространство : YUV
Субдискретизация насыщенности : 4:2:0 (Type 2)
Битовая глубина : 10 бит
Бит/(Пиксели*Кадры) : 0.334
Размер потока : 65,9 Гбайт (89%)
Default : Нет
Дата кодирования : UTC 2019-01-16 17:00:24
Дата пометки : UTC 2019-01-16 17:00:24
Цветовой диапазон : Limited
Основные цвета : BT.2020
Характеристики трансфера : PQ
Коэффициенты матрицы : BT.2020 non-constant
MasteringDisplay_ColorPrimaries : Display P3
MasteringDisplay_Luminance : min: 0.0001 cd/m2, max: 1000 cd/m2
Codec configuration box : hvcC

Видео #2
Идентификатор : 2
Формат : HEVC
Формат/Информация : High Efficiency Video Coding
Коммерческое название : HDR10
Профиль формата : Main 10@L5.1@High
Dolby Vision : 1.0, dvhe.07.06, EL+RPU
Идентификатор кодека : dvhe
Идентификатор кодека/Информация : High Efficiency Video Coding with Dolby Vision
Продолжительность : 2 ч. 22 м.
Битрейт : 7440 Кбит/сек
Ширина : 1920 пикселей
Высота : 1080 пикселей
Соотношение сторон : 16:9
Режим частоты кадров : Постоянный
Частота кадров : 23,976 (24000/1001) кадра/сек
Цветовое пространство : YUV
Субдискретизация насыщенности : 4:2:0 (Type 2)
Битовая глубина : 10 бит
Бит/(Пиксели*Кадры) : 0.150
Размер потока : 7,39 Гбайт (10%)
Default : Нет
Дата кодирования : UTC 2019-01-16 17:00:24
Дата пометки : UTC 2019-01-16 17:00:24
Цветовой диапазон : Limited
Основные цвета : BT.2020
Характеристики трансфера : PQ
Коэффициенты матрицы : BT.2020 non-constant
MasteringDisplay_ColorPrimaries : Display P3
MasteringDisplay_Luminance : min: 0.0001 cd/m2, max: 1000 cd/m2
Codec configuration box : hvcC+dvcC

Аудио
Идентификатор : 3
Формат : AC-3
Формат/Информация : Audio Coding 3
Коммерческое название : Dolby Digital
Идентификатор кодека : ac-3
Продолжительность : 2 ч. 22 м.
Вид битрейта : Постоянный
Битрейт : 640 Кбит/сек
Каналы : 6 каналов
Channel layout : L R C LFE Ls Rs
Частота : 48,0 КГц
Частота кадров : 31,250 кадров/сек (1536 SPF)
Битовая глубина : 16 бит
Метод сжатия : С потерями
Размер потока : 651 Мбайт (1%)
Язык : Russian
ServiceKind/String : Complete Main
Default : Нет
Дата кодирования : UTC 2019-01-16 17:00:24
Дата пометки : UTC 2019-01-16 17:00:24



Скачать Форрест Гамп через торрент https://b.radikal.ru/b37/1901/23/ba5ad4b00af4.png Скачать, смотреть онлайн Форрест Гамп бесплантно в хорошем качестве Описание: От лица главного героя Форреста Гампа, слабоумного безобидного человека с благородным и открытым сердцем, рассказывается история ... 10 10 3
Торрент: Зарегистрирован [2019-01-17 04:01] · скачан: 13 раз
Статус: √ проверено
Размер: 73.9 GB
Как cкачать? Как скачать Форрест Гамп через торрент | UTorrent

% Раздел Тема Автор DL S | L
Ultra HD (UHD: 2K, 4K, 8K) [ 107.89 GB ] Форрест Гамп / Forrest Gump | MVO + 6xAVO | 2160p sheker187 Скачать
1 | 1
Ultra HD (UHD: 2K, 4K, 8K) [ 91.88 GB ] Форрест Гамп / Forrest Gump | MVO + 6xAVO + DVO | 2160p sheker187 Скачать
1 | 0
Ultra HD (UHD: 2K, 4K, 8K) [ 99.43 GB ] Форрест Гамп / Forrest Gump | MVO + 2xAVO | 2160p sheker187 Скачать
1 | 0
Ultra HD (UHD: 2K, 4K, 8K) [ 45.54 GB ] Форрест Гамп / Forrest Gump | MVO | 2160p sheker187 Скачать
1 | 0
Фильмы (HD 720p, 1080p) (48-60 fps) [ 10.34 GB ] Форрест Гамп / Forrest Gump | Лицензия | 720p,Многоголосый, закадровый Tiberiumsun69 Скачать
1 | 0
Фильмы (HD 720p, 1080p) (48-60 fps) [ 19.98 GB ] Форрест Гамп / Forrest Gump | Лицензия | 1080p,Многоголосый, закадровый Tiberiumsun69 Скачать
2 | 1
Фильмы [HD 720p, 1080p] (Хороший звук DUB, MVO) [ 12.93 GB ] Форрест Гамп / Forrest Gump | | 1080p Anonymous Скачать
1 | 0

28-11-2019 20:33  


Отключить вcю реклaмy на сайте, в т.ч. и в плеере онлайн просмотра!

    Дорогой пользователь! Огромная просьба, поблагодарите релизера, оцените раздачу и оставьте свои комментарий, если Вы скачали Форрест Гамп через торрент бесплатно!!
    Комментировать посты могут только пользователи прошедшие не сложную регистрацию
    Показать сообщения:    


    Форрест Гамп через торрент
    Скачать бесплатно Форрест Гамп
    Форрест Гамп скачать торрент
    Форрест Гамп смотреть онлайн
    Cкачать фильм Форрест Гамп бесплатно
    Форрест Гамп скачать торрент в хорошем качестве
    Форрест Гамп смотреть онлайн бесплатно в хорошем качестве
    Вы не можете начинать темы
    Вы не можете отвечать на сообщения
    Вы не можете редактировать свои сообщения
    Вы не можете удалять свои сообщения
    Вы не можете голосовать в опросах
    Вы не можете прикреплять файлы к сообщениям
    Вы можете скачивать файлы
    Форрест Гамп / Forrest Gump [1994, драма, мелодрама, экранизация UHD BDRemux 2160p] MVO [Dolby Vision TV] смотреть онлайн, скачать торрент picoco.icu