Достать ножи: Стеклянная луковица

MVO

Добыча

Дубляж

Уэнсдэй

1 сезон

Тор

Дубляж

13 клиническая

1 сезон

Жестокая ночь

MVO

Одни из нас

1 сезон

Deluxe

pack

Рекомендуем

30

Пиратка

ВАЖНО

ВАЖНО

Ghostwire

Пиратка

jed

RePack

nioh2

RePack

RDR2

RePack

NEED FOR SPEED™ PAYBACK

RePack

скачать торрент

Кинопоиск HD

Острые козырьки 6 сезон

6 сезон

FAR CRY 6

RePack

скачать торрент

Лицензия

скачать торрент

MVO

1

1 сезон

скачать торрент

1 сезон

скачать торрент

Лицензия

  

Кловерфилд, 10 / 10 Cloverfield Lane (Дэн Трахтенберг) [2016, ужасы, фантастика, триллер, UHD BDRemux 2160p] Дубляж [Dolby Vision TV]

Кловерфилд, 10 через торрент piratbit.org

Размер: 41.13 GB | Добавлен: 4 года назад | Торрент скачан:7 раз
Смотреть онлайн | Скачать | Поддержите нас   

17-01-2019 04:04 Кловерфилд, 10 Скачать торрент  

Кловерфилд, 10 / 10 Cloverfield Lane«Монстры бывают разные» Год выпуска: 2016
Страна: США
Жанр: ужасы, фантастика, триллер, драма, детектив
Продолжительность: 01:43:34
Перевод: Дублированный
Режиссер: Дэн Трахтенберг
В ролях:

Джон Гудман (Howard), Мэри Элизабет Уинстэд (Michelle), Джон Галлахер мл. (Emmett), Дуглас М. Гриффин (Driver), Сюзанн Крайер (Woman), Брэдли Купер (Ben, озвучка), Сумали Монтано (Voice on Radio, озвучка), Фрэнк Моттек (Radio Broadcaster, озвучка), Kayla Bechor (Paper girl, в титрах не указана)
Описание:
Проснувшись после автомобильной аварии, девушка оказывается в подвале человека, утверждающего, что он спас ей жизнь от химической атаки, которая сделала мир за пределами бункера непригодным для жизни.
Рейтинг:

MPAA: PG-13 - Детям до 13 лет просмотр не желателен
Качество: UHD BDRemux 2160p | Dolby Vision TV
Формат: MP4
Видео: HEVC, 50.3 Mбит/с, 3840x2160
Аудио: Русский AC3, 6 ch, 640 Кбит/с | Дублированное [Лицензия]
Данный вид релизов (контейнер MP4) предназначен для встроенного в ТВ (соответственно, с поддержкой DV) плеер.
Т.Е. Можно использовать как USB flash/HDD, так и DLNA / Plex - подобные сервисы/программы. дополнительный-внешний плеер не обязателен.

Внимание!
На моделях LG 2016 возможны сюрпризы "через раз", 2017-2018 должно идти без сюрпризов )
Общее
Полное имя : Cloverfield.Lane.2016.UHD.BDRemux.2160p.DV.IVA.RUS.ExKinoRay.mp4
Формат : MPEG-4
Профиль формата : Base Media / Version 2
Идентификатор кодека : mp42 (mp42/iso6/isom/msdh/dby1)
Размер файла : 41,1 Гбайт
Продолжительность : 1 ч. 43 м.
Общий поток : 56,8 Мбит/сек
Дата кодирования : UTC 2019-01-17 00:05:59
Дата пометки : UTC 2019-01-17 00:05:59

Видео #1
Идентификатор : 1
Формат : HEVC
Формат/Информация : High Efficiency Video Coding
Коммерческое название : HDR10
Профиль формата : Main 10@L5.1@High
Идентификатор кодека : hev1
Идентификатор кодека/Информация : High Efficiency Video Coding
Продолжительность : 1 ч. 43 м.
Битрейт : 50,3 Мбит/сек
Ширина : 3840 пикселей
Высота : 2160 пикселей
Соотношение сторон : 16:9
Режим частоты кадров : Постоянный
Частота кадров : 23,976 (24000/1001) кадра/сек
Цветовое пространство : YUV
Субдискретизация насыщенности : 4:2:0 (Type 2)
Битовая глубина : 10 бит
Бит/(Пиксели*Кадры) : 0.253
Размер потока : 36,4 Гбайт (89%)
Default : Нет
Дата кодирования : UTC 2019-01-17 00:05:59
Дата пометки : UTC 2019-01-17 00:05:59
Цветовой диапазон : Limited
Основные цвета : BT.2020
Характеристики трансфера : PQ
Коэффициенты матрицы : BT.2020 non-constant
MasteringDisplay_ColorPrimaries : Display P3
MasteringDisplay_Luminance : min: 0.0001 cd/m2, max: 1000 cd/m2
Codec configuration box : hvcC

Видео #2
Идентификатор : 2
Формат : HEVC
Формат/Информация : High Efficiency Video Coding
Коммерческое название : HDR10
Профиль формата : Main 10@L5.1@High
Dolby Vision : 1.0, dvhe.07.06, EL+RPU
Идентификатор кодека : dvhe
Идентификатор кодека/Информация : High Efficiency Video Coding with Dolby Vision
Продолжительность : 1 ч. 43 м.
Битрейт : 5860 Кбит/сек
Ширина : 1920 пикселей
Высота : 1080 пикселей
Соотношение сторон : 16:9
Режим частоты кадров : Постоянный
Частота кадров : 23,976 (24000/1001) кадра/сек
Цветовое пространство : YUV
Субдискретизация насыщенности : 4:2:0 (Type 2)
Битовая глубина : 10 бит
Бит/(Пиксели*Кадры) : 0.118
Размер потока : 4,24 Гбайт (10%)
Default : Нет
Дата кодирования : UTC 2019-01-17 00:05:59
Дата пометки : UTC 2019-01-17 00:05:59
Цветовой диапазон : Limited
Основные цвета : BT.2020
Характеристики трансфера : PQ
Коэффициенты матрицы : BT.2020 non-constant
MasteringDisplay_ColorPrimaries : Display P3
MasteringDisplay_Luminance : min: 0.0001 cd/m2, max: 1000 cd/m2
Codec configuration box : hvcC+dvcC

Аудио
Идентификатор : 3
Формат : AC-3
Формат/Информация : Audio Coding 3
Коммерческое название : Dolby Digital
Идентификатор кодека : ac-3
Продолжительность : 1 ч. 43 м.
Вид битрейта : Постоянный
Битрейт : 640 Кбит/сек
Каналы : 6 каналов
Channel layout : L R C LFE Ls Rs
Частота : 48,0 КГц
Частота кадров : 31,250 кадров/сек (1536 SPF)
Битовая глубина : 16 бит
Метод сжатия : С потерями
Размер потока : 474 Мбайт (1%)
Язык : Russian
ServiceKind/String : Complete Main
Default : Нет
Дата кодирования : UTC 2019-01-17 00:05:59
Дата пометки : UTC 2019-01-17 00:05:59



Скачать Кловерфилд, 10 через торрент https://b.radikal.ru/b37/1901/23/ba5ad4b00af4.png Скачать, смотреть онлайн Кловерфилд, 10 бесплантно в хорошем качестве Описание: Проснувшись после автомобильной аварии, девушка оказывается в подвале человека, утверждающего, что он спас ей жизнь от химической ... 10 10 3
Торрент: Зарегистрирован [2019-01-17 04:04] · скачан: 7 раз
Статус: √ проверено
Размер: 41.13 GB
Как cкачать? Как скачать Кловерфилд, 10 через торрент | UTorrent

% Раздел Тема Автор DL S | L
Ultra HD (UHD: 2K, 4K, 8K) [ 46.82 GB ] Кловерфилд, 10 / 10 Cloverfield Lane | DUB + 2xAVO | 2160p sheker187 Скачать
1 | 0
Ultra HD (UHD: 2K, 4K, 8K) [ 41.2 GB ] Кловерфилд, 10 / 10 Cloverfield Lane | Лицензия Blu-ray CEE | 2160p bober100 Скачать
1 | 0
Фильмы [HD 720p, 1080p] (Хороший звук DUB, MVO) [ 4.37 GB ] Кловерфилд, 10 / 10 Cloverfield Lane | Лицензия | 720p от potroks potroks Скачать
1 | 0
Фильмы с авторской озвучкой [ 1.46 GB ] Кловерфилд, 10 / 10 Cloverfield Lane | AVO | BDRip killermax2013 Скачать
3 | 0

28-11-2019 20:33  


Отключить вcю реклaмy на сайте, в т.ч. и в плеере онлайн просмотра!

    Дорогой пользователь! Огромная просьба, поблагодарите релизера, оцените раздачу и оставьте свои комментарий, если Вы скачали Кловерфилд, 10 через торрент бесплатно!!
    Комментировать посты могут только пользователи прошедшие не сложную регистрацию
    Показать сообщения:    


    Кловерфилд, 10 через торрент
    Скачать бесплатно Кловерфилд, 10
    Кловерфилд, 10 скачать торрент
    Кловерфилд, 10 смотреть онлайн
    Cкачать фильм Кловерфилд, 10 бесплатно
    Кловерфилд, 10 скачать торрент в хорошем качестве
    Кловерфилд, 10 смотреть онлайн бесплатно в хорошем качестве
    Вы не можете начинать темы
    Вы не можете отвечать на сообщения
    Вы не можете редактировать свои сообщения
    Вы не можете удалять свои сообщения
    Вы не можете голосовать в опросах
    Вы не можете прикреплять файлы к сообщениям
    Вы можете скачивать файлы
    Кловерфилд, 10 / 10 Cloverfield Lane [2016, ужасы, фантастика, триллер, UHD BDRemux 2160p] Дубляж [Dolby Vision TV] смотреть онлайн, скачать торрент picoco.icu