Достать ножи: Стеклянная луковица

MVO

Добыча

Дубляж

Уэнсдэй

1 сезон

Тор

Дубляж

13 клиническая

1 сезон

Жестокая ночь

MVO

Одни из нас

1 сезон

Deluxe

pack

Рекомендуем

30

Пиратка

ВАЖНО

ВАЖНО

Ghostwire

Пиратка

jed

RePack

nioh2

RePack

RDR2

RePack

NEED FOR SPEED™ PAYBACK

RePack

скачать торрент

Кинопоиск HD

Острые козырьки 6 сезон

6 сезон

FAR CRY 6

RePack

скачать торрент

Лицензия

скачать торрент

MVO

1

1 сезон

скачать торрент

1 сезон

скачать торрент

Лицензия

  

Звезда родилась / A Star Is Born (Брэдли Купер) [2018, мелодрама, музыка, UHD WEBRip 2160p] Дубляж [iTunes]

Звезда родилась через торрент piratbit.org

Размер: 21.61 GB | Добавлен: 4 года назад | Торрент скачан:106 раз
Смотреть онлайн | Скачать | Поддержите нас   

17-01-2019 14:56 Звезда родилась Скачать торрент  

Звезда родилась / A Star Is Born

Год выпуска: 2018
Страна: США
Жанр: мелодрама, музыка
Продолжительность: 02:15:35
Перевод: Дублированный [iTunes]
Субтитры: Русские, английские
Режиссер: Брэдли Купер
В ролях:

Леди Гага (Ally), Брэдли Купер (Jack), Сэм Эллиотт (Bobby), Эндрю Дайс Клэй (Lorenzo), Рафи Гаврон (Rez Gavron), Энтони Рамос (Ramon), Дэйв Шаппелл (George «Noodles» Stone), Алек Болдуин (Alec Baldwin), Марлон Уильямс (Marlon Williams), Брэнди Карлайл (Brandi Carlile), Рон Рифкин (Carl), Бэрри Шебака Хенли (Little Feet)
Описание:
Кантри-музыкант Джексон Мейн, чья карьера быстро катится под откос, однажды знакомится с никому не известной талантливой певицей Элли. Между героями вспыхивает страстный роман. Джек помогает Элли добиться успеха. Но чем стремительнее набирает обороты музыкальная карьера Элли, тем сложнее ему мириться со своей увядающей славой.
Рейтинг:

MPAA: R - Лицам до 17 лет обязательно присутствие взрослого
Качество: UHD WEBRip 2160p
Формат: MKV
Видео: HEVC HDR, 22,1 Мбит/с, 3840x1600, 23.976 Кадр/с, 10 bit
Аудио №1: Russian / Dolby Digital Audio / 5.1 / 48 kHz / 384 kbps Полное дублирование iTunes
Аудио №2: English / Dolby Digital Audio / 5.1 / 48 kHz / 384 kbps Оригинал
Навигация по главам: есть
General
Unique ID : 138827280251515327774177696009747980753 (0x6871295F7F4F4A6F5E39B66624C061D1)
Complete name : X:\Releases\A.Star.is.Born.2018.WEBRip.HEVC.HDR.2160p.mkv
Format : Matroska
Format version : Version 4
File size : 21.6 GiB
Duration : 2 h 15 min
Overall bit rate : 22.8 Mb/s
Encoded date : UTC 2019-01-17 13:33:31
Writing application : mkvmerge v30.1.0 ('Forever And More') 64-bit
Writing library : libebml v1.3.6 + libmatroska v1.4.9
Attachments : poster.jpg

Video
ID : 1
Format : HEVC
Format/Info : High Efficiency Video Coding
Commercial name : HDR10
Format profile : Main 10@L5@Main
Codec ID : V_MPEGH/ISO/HEVC
Duration : 2 h 15 min
Bit rate : 22.1 Mb/s
Width : 3 840 pixels
Height : 1 600 pixels
Display aspect ratio : 2.40:1
Frame rate mode : Constant
Frame rate : 23.976 (24000/1001) FPS
Color space : YUV
Chroma subsampling : 4:2:0
Bit depth : 10 bits
Bits/(Pixel*Frame) : 0.150
Stream size : 20.9 GiB (97%)
Default : Yes
Forced : No
Color range : Limited
Color primaries : BT.2020
Transfer characteristics : PQ
Matrix coefficients : BT.2020 non-constant
Mastering display color pri : BT.2020
Mastering display luminance : min: 4.1250 cd/m2, max: 4000 cd/m2
Maximum Content Light Level : 1287 cd/m2
Maximum Frame-Average Light : 535 cd/m2

Audio #1
ID : 2
Format : AC-3
Format/Info : Audio Coding 3
Commercial name : Dolby Digital
Codec ID : A_AC3
Duration : 2 h 15 min
Bit rate mode : Constant
Bit rate : 384 kb/s
Channel(s) : 6 channels
Channel layout : L R C LFE Ls Rs
Sampling rate : 48.0 kHz
Frame rate : 31.250 FPS (1536 SPF)
Bit depth : 16 bits
Compression mode : Lossy
Stream size : 372 MiB (2%)
Title : Дубляж iTunes
Language : Russian
Service kind : Complete Main
Default : Yes
Forced : No

Audio #2
ID : 3
Format : AC-3
Format/Info : Audio Coding 3
Commercial name : Dolby Digital
Codec ID : A_AC3
Duration : 2 h 15 min
Bit rate mode : Constant
Bit rate : 384 kb/s
Channel(s) : 6 channels
Channel layout : L R C LFE Ls Rs
Sampling rate : 48.0 kHz
Frame rate : 31.250 FPS (1536 SPF)
Bit depth : 16 bits
Compression mode : Lossy
Delay relative to video : 3 ms
Stream size : 373 MiB (2%)
Language : English
Service kind : Complete Main
Default : No
Forced : No

Text #1
ID : 4
Format : UTF-8
Codec ID : S_TEXT/UTF8
Codec ID/Info : UTF-8 Plain Text
Duration : 1 h 25 min
Bit rate : 0 b/s
Count of elements : 6
Stream size : 232 Bytes (0%)
Title : Форсированные
Language : Russian
Default : Yes
Forced : No

Text #2
ID : 5
Format : UTF-8
Codec ID : S_TEXT/UTF8
Codec ID/Info : UTF-8 Plain Text
Duration : 2 h 14 min
Bit rate : 95 b/s
Count of elements : 1563
Stream size : 94.6 KiB (0%)
Title : Полные
Language : Russian
Default : No
Forced : No

Text #3
ID : 6
Format : UTF-8
Codec ID : S_TEXT/UTF8
Codec ID/Info : UTF-8 Plain Text
Duration : 2 h 15 min
Bit rate : 70 b/s
Count of elements : 2152
Stream size : 69.4 KiB (0%)
Title : Полные
Language : English
Default : No
Forced : No

Menu
00:00:00.000 : en:1
00:11:08.000 : en:2
00:20:26.000 : en:3
00:31:43.000 : en:4
00:42:46.000 : en:5
00:53:11.000 : en:6
01:04:31.000 : en:7
01:16:51.000 : en:8
01:29:29.000 : en:9
01:43:45.000 : en:10
01:56:41.000 : en:11
02:10:05.000 : en:12



Скачать Звезда родилась через торрент https://a.radikal.ru/a11/1901/7c/738932bf782f.jpg Скачать, смотреть онлайн Звезда родилась бесплантно в хорошем качестве Описание: Кантри-музыкант Джексон Мейн, чья карьера быстро катится под откос, однажды знакомится с никому не известной талантливой певицей ... 10 10 3
Торрент: Зарегистрирован [2019-01-17 14:56] · скачан: 106 раз
Статус: √ проверено
Размер: 21.61 GB
Как cкачать? Как скачать Звезда родилась через торрент | UTorrent

% Раздел Тема Автор DL S | L
Ultra HD (UHD: 2K, 4K, 8K) [ 43.66 GB ] Звезда родилась / A Star Is Born | Лицензия | 2160p sheker187 Скачать
1 | 0
Фильмы [HD 720p, 1080p] (Хороший звук DUB, MVO) [ 2.8 GB ] Звезда родилась / A Star Is Born | Лицензия | 1080p, HEVC (10bit Мичман37 Скачать
2 | 0
Ultra HD (UHD: 2K, 4K, 8K) [ 22.12 GB ] Звезда родилась / A Star Is Born | Лицензия | 2160p sheker187 Скачать
1 | 0
Ultra HD (UHD: 2K, 4K, 8K) [ 49.51 GB ] Звезда родилась / A Star Is Born | Лицензия | 2160p sheker187 Скачать
1 | 0
Ultra HD (UHD: 2K, 4K, 8K) [ 57.91 GB ] Звезда родилась / A Star Is Born | Лицензия | 2160p sheker187 Скачать
1 | 0
Фильмы [HD 720p, 1080p] (Хороший звук DUB, MVO) [ 4.44 GB ] Звезда родилась / A Star Is Born | Лицензия | 1080p, (10 bit bober100 Скачать
1 | 0
Фильмы 2018 [DVDrip, WEB-DLRip, HDrip] (DUB, MVO) [ 2.18 GB ] Звезда родилась / A Star Is Born | Лицензия | BDRip Twi7ter Скачать
1 | 0

28-11-2019 20:33  


Отключить вcю реклaмy на сайте, в т.ч. и в плеере онлайн просмотра!

    Дорогой пользователь! Огромная просьба, поблагодарите релизера, оцените раздачу и оставьте свои комментарий, если Вы скачали Звезда родилась через торрент бесплатно!!
    Комментировать посты могут только пользователи прошедшие не сложную регистрацию
    Показать сообщения:    


    Звезда родилась через торрент
    Скачать бесплатно Звезда родилась
    Звезда родилась скачать торрент
    Звезда родилась смотреть онлайн
    Cкачать фильм Звезда родилась бесплатно
    Звезда родилась скачать торрент в хорошем качестве
    Звезда родилась смотреть онлайн бесплатно в хорошем качестве
    Вы не можете начинать темы
    Вы не можете отвечать на сообщения
    Вы не можете редактировать свои сообщения
    Вы не можете удалять свои сообщения
    Вы не можете голосовать в опросах
    Вы не можете прикреплять файлы к сообщениям
    Вы можете скачивать файлы
    Звезда родилась / A Star Is Born [2018, мелодрама, музыка, UHD WEBRip 2160p] Дубляж [iTunes] смотреть онлайн, скачать торрент picoco.icu