Достать ножи: Стеклянная луковица

MVO

Добыча

Дубляж

Уэнсдэй

1 сезон

Тор

Дубляж

13 клиническая

1 сезон

Жестокая ночь

MVO

Одни из нас

1 сезон

Deluxe

pack

Рекомендуем

30

Пиратка

ВАЖНО

ВАЖНО

Ghostwire

Пиратка

jed

RePack

nioh2

RePack

RDR2

RePack

NEED FOR SPEED™ PAYBACK

RePack

скачать торрент

Кинопоиск HD

Острые козырьки 6 сезон

6 сезон

FAR CRY 6

RePack

скачать торрент

Лицензия

скачать торрент

MVO

1

1 сезон

скачать торрент

1 сезон

скачать торрент

Лицензия

  

Список Шиндлера / Schindler's List (Стивен Спилберг) [1993 г., Драма, военный, биография, история, ВОВ, UHD BDRemux 2160p] Дубляж [Dolby Vision TV]

Список Шиндлера через торрент piratbit.org

Размер: 79.51 GB | Добавлен: 4 года назад | Торрент скачан:10 раз
Смотреть онлайн | Скачать | Поддержите нас   

18-01-2019 04:45 Список Шиндлера Скачать торрент  

Список Шиндлера / Schindler's List
«Этот список - жизнь»

Год выпуска: 1993
Страна: США
Жанр: Драма, военный, биография, история, ВОВ, экранизация
Продолжительность: 03:15:08
Перевод: Дублированный
Режиссер: Стивен Спилберг
В ролях:
Лиам Нисон, Бен Кингсли, Рэйф Файнс, Кэролайн Гудолл, Джонатан Сегалл, Эмбет Дэвидц, Малгоша Гебель, Шмуэль Леви, Марк Иванир, Беатрис Макола, Анджей Северин, Фридрих фон Тун, Кшиштоф Люфт, Хэрри Неринг, Норберт Вайссер, Ади Ницан, Михаэль Шнайдер, Мири Фабиан, Анна Муха, Альберт Мисак, Майкл Гордон, Яцек Войчицки, Беата Палух, Пётр Полк, Эзра Дегэн, Беата Новак, Леопольд Козловски, Ежи Новак, Адам Семён, Павел Делонг, Шабтай Конорти, Хенрик Биста, Тадеуш Брадецкий, Элина Лёвензон, Эва Колясиньска, Беттина Купфер, Вили Матула, Гено Лечнер, Людгер Пистор, Бранко Лустиг, Ганс-Михаэл Реберг, Эугениуш П
Описание:
Экранизация романа Томаса Кенилли «Ковчег Шиндлера». Кто спас одну человеческую жизнь, тот спас целый мир... "Список Шиндлера" - признанный шедевр кинематографа. Лента рассказывает реальную историю загадочного Оскара Шиндлера, члена нацистской партии, преуспевающего фабриканта, спасшего во время Второй мировой войны более тысячи ста евреев. Это триумф одного человека, не похожего на других, и драма тех, кто, благодаря ему, выжил в ужасный период человеческой истории.
rating
Качество: UHD BDRemux 2160p | Dolby Vision TV
Формат: MP4
Видео: HEVC HDR, 51.6 Мбит/с, 3840x2160, 23.976 кадр/c
Аудио: Русский (AC3, 6 ch, 640 Кбит/с)
Данный вид релизов (контейнер MP4) предназначен для встроенного в ТВ (соответственно, с поддержкой DV) плеер.
Т.Е. Можно использовать как USB flash/HDD, так и DLNA / Plex - подобные сервисы/программы. дополнительный-внешний плеер не обязателен.

Внимание!
На моделях LG 2016 возможны сюрпризы "через раз", 2017-2018 должно идти без сюрпризов )
Общее
Полное имя : Schindlers.List.1993.UHD.BDRemux.2160p.DV.IVA.RUS.ExKinoRay.mp4
Формат : MPEG-4
Профиль формата : Base Media / Version 2
Идентификатор кодека : mp42 (mp42/dby1/isom)
Размер файла : 79,5 Гбайт
Продолжительность : 3 ч. 15 м.
Общий поток : 58,3 Мбит/сек
Дата кодирования : UTC 2019-01-17 13:53:19
Дата пометки : UTC 2019-01-17 13:53:19

Видео #1
Идентификатор : 1
Формат : HEVC
Формат/Информация : High Efficiency Video Coding
Коммерческое название : HDR10
Профиль формата : Main 10@L5.1@High
Идентификатор кодека : hev1
Идентификатор кодека/Информация : High Efficiency Video Coding
Продолжительность : 3 ч. 15 м.
Продолжительность оригинала : 45 м. 59 с.
Битрейт : 51,6 Мбит/сек
Ширина : 3840 пикселей
Высота : 2160 пикселей
Соотношение сторон : 16:9
Режим частоты кадров : Постоянный
Частота кадров : 23,976 (24000/1001) кадра/сек
Цветовое пространство : YUV
Субдискретизация насыщенности : 4:2:0 (Type 2)
Битовая глубина : 10 бит
Бит/(Пиксели*Кадры) : 0.259
Размер потока : 70,3 Гбайт (88%)
Размер потока оригинала : 70,3 Гбайт (88%)
Default : Нет
Дата кодирования : UTC 2019-01-17 13:53:19
Дата пометки : UTC 2019-01-17 13:53:19
Цветовой диапазон : Limited
Основные цвета : BT.2020
Характеристики трансфера : PQ
Коэффициенты матрицы : BT.2020 non-constant
MasteringDisplay_ColorPrimaries : Display P3
MasteringDisplay_Luminance : min: 0.0010 cd/m2, max: 1000 cd/m2
MaxCLL : 1000 cd/m2
MaxFALL : 311 cd/m2
mdhd_Duration : 11707738
Codec configuration box : hvcC

Видео #2
Идентификатор : 2
Формат : HEVC
Формат/Информация : High Efficiency Video Coding
Коммерческое название : HDR10
Профиль формата : Main 10@L5.1@High
Dolby Vision : 1.0, dvhe.07.06, EL+RPU
Идентификатор кодека : dvhe
Идентификатор кодека/Информация : High Efficiency Video Coding with Dolby Vision
Продолжительность : 3 ч. 15 м.
Продолжительность оригинала : 45 м. 59 с.
Битрейт : 6098 Кбит/сек
Ширина : 1920 пикселей
Высота : 1080 пикселей
Соотношение сторон : 16:9
Режим частоты кадров : Постоянный
Частота кадров : 23,976 (24000/1001) кадра/сек
Цветовое пространство : YUV
Субдискретизация насыщенности : 4:2:0 (Type 2)
Битовая глубина : 10 бит
Бит/(Пиксели*Кадры) : 0.123
Размер потока : 8,31 Гбайт (10%)
Размер потока оригинала : 8,31 Гбайт (10%)
Default : Нет
Дата кодирования : UTC 2019-01-17 13:53:19
Дата пометки : UTC 2019-01-17 13:53:19
Цветовой диапазон : Limited
Основные цвета : BT.2020
Характеристики трансфера : PQ
Коэффициенты матрицы : BT.2020 non-constant
MasteringDisplay_ColorPrimaries : Display P3
MasteringDisplay_Luminance : min: 0.0010 cd/m2, max: 1000 cd/m2
mdhd_Duration : 11707738
Codec configuration box : hvcC+dvcC

Аудио
Идентификатор : 3
Формат : AC-3
Формат/Информация : Audio Coding 3
Коммерческое название : Dolby Digital
Идентификатор кодека : ac-3
Продолжительность : 3 ч. 15 м.
Вид битрейта : Постоянный
Битрейт : 640 Кбит/сек
Каналы : 6 каналов
Channel layout : L R C LFE Ls Rs
Частота : 48,0 КГц
Частота кадров : 31,250 кадров/сек (1536 SPF)
Битовая глубина : 16 бит
Метод сжатия : С потерями
Размер потока : 893 Мбайт (1%)
Язык : Russian
ServiceKind/String : Complete Main
Default : Нет
Дата кодирования : UTC 2019-01-17 13:53:19
Дата пометки : UTC 2019-01-17 13:53:19



Скачать Список Шиндлера через торрент https://c.radikal.ru/c43/1901/21/2eeb7f65acd0.png Скачать, смотреть онлайн Список Шиндлера бесплантно в хорошем качестве Описание: Экранизация романа Томаса Кенилли «Ковчег Шиндлера». Кто спас одну человеческую жизнь, тот спас целый мир... "Список Шиндлера" - ... 2 10 1
Торрент: Зарегистрирован [2019-01-18 04:45] · скачан: 10 раз
Статус: √ проверено
Размер: 79.51 GB
Как cкачать? Как скачать Список Шиндлера через торрент | UTorrent

% Раздел Тема Автор DL S | L
Фильмы [HD 720p, 1080p] (Хороший звук DUB, MVO) [ 11.5 GB ] Список Шиндлера / Schindler's List | Дубляж | 1080p, Дубляж Бумер Скачать
1 | 0
Фильмы до 2000 г. [ 1.47 GB ] Список Шиндлера / Schindler's List [1993г., драма, военный, биография, история, Стивен Спилберг / Steven Spielberg, HDTVRip | | HDTVRip aspace Скачать
1 | 0
Ultra HD (UHD: 2K, 4K, 8K) [ 109.84 GB ] Список Шиндлера / Schindler's List | DUB + 2xMVO + 4xAVO | 2160p sheker187 Скачать
1 | 0
Ultra HD (UHD: 2K, 4K, 8K) [ 80.52 GB ] Список Шиндлера / Schindler's List | DUB + 2xMVO + 4xAVO | 2160p sheker187 Скачать
1 | 0
Фильмы [HD 720p, 1080p] (Хороший звук DUB, MVO) [ 11.43 GB ] Список Шиндлера / Schindler's list | DUB | 720p msltel Скачать
1 | 0
Фильмы [HD 720p, 1080p] (Хороший звук DUB, MVO) [ 25.91 GB ] Список Шиндлера / Schindler's list | DUB | 1080p msltel Скачать
1 | 0
Фильмы до 2000 г. [ 2.75 GB ] Список Шиндлера / Schindler's List | Дубляж | DVDRip, Дубляж Бумер Скачать
1 | 1

28-11-2019 20:33  


Отключить вcю реклaмy на сайте, в т.ч. и в плеере онлайн просмотра!

    Дорогой пользователь! Огромная просьба, поблагодарите релизера, оцените раздачу и оставьте свои комментарий, если Вы скачали Список Шиндлера через торрент бесплатно!!
    Комментировать посты могут только пользователи прошедшие не сложную регистрацию
    Показать сообщения:    


    Список Шиндлера через торрент
    Скачать бесплатно Список Шиндлера
    Список Шиндлера скачать торрент
    Список Шиндлера смотреть онлайн
    Cкачать фильм Список Шиндлера бесплатно
    Список Шиндлера скачать торрент в хорошем качестве
    Список Шиндлера смотреть онлайн бесплатно в хорошем качестве
    Вы не можете начинать темы
    Вы не можете отвечать на сообщения
    Вы не можете редактировать свои сообщения
    Вы не можете удалять свои сообщения
    Вы не можете голосовать в опросах
    Вы не можете прикреплять файлы к сообщениям
    Вы можете скачивать файлы
    Список Шиндлера / Schindler's List [1993 г., Драма, военный, биография, история, ВОВ, UHD BDRemux 2160p] Дубляж [Dolby Vision TV] смотреть онлайн, скачать торрент picoco.icu