2 сезон

iTunes

WEBRip

1

2 сезон

iTunes

1 сезон

1 сезон

RePack

30

Ultimate

ВАЖНО

ИГРА 18+

pack

RePack

MK11
pack

Легкие деньги

RePack

jed

RePack

fifa19

RePack

RDR2

RePack

NEED FOR SPEED™ PAYBACK

4 сезон

9 сезон

Бесстыжие 9 сезон

Все сериалы

все сериалы на PB.wtf

RePack

FAR CRY 5

Anonymous, доброе утро, мы не успеваем собрать деньги на оплату серверов за февраль, помогите нам пожалуйста в это трудное время. В качестве благодарности мы отключим Вам всю рекламу на сайте (укажите свой ник в строку Ваше имя)!

×
  
Magnet ссылка

Тёмное зеркало / Look Away (Асаф Бернштейн) [2018, триллер, WEB-DL 1080p] [Ukr DUB] piratbit.org

Тёмное зеркало через торрент piratbit.org

Размер: 3.72 GB | Добавлен: 2 года 1 мес. назад | Торрент скачан:29 раз
Скачать  

18-01-2019 07:21 Тёмное зеркало Скачать торрент  

Тёмное зеркало / Look Away

Год выпуска: 2018
Страна: США
Жанр: триллер
Продолжительность: 01:43:03
Перевод: Украинский (дублированный)
Субтитры: нет

Режиссер: Асаф Бернштейн

В ролях: Индиа Айсли, Джейсон Айзекс, Мира Сорвино, Пенелопа Митчелл, Джон С. МакДональд, Харрисон Гилбертсон, Кристен Харрис, Кира Джонсон, Михал Бернштейн, Гленн Одеро

Описание: У Марии нет друзей, и даже родители считают ее неудачницей. Свои секреты и обиды она доверяет только своему отражению в зеркале, демону-двойнику, который воплощает темную сторону ее души. Но как изменится жизнь Марии, если она выпустит своих демонов наружу и позволит им осуществить ее тайные желания?

rating

Качество: WEB-DL 1080p
Формат видео: MKV
Видео кодек: AVC
Аудио кодек: AC3
Видео: 1916x800, 23.976 fps, ~4500 kbps avg
Аудио 1: 48 kHz, AC3 Dolby Digital, 2 ch, ~192 kbps - Ukr DUB
Аудио 2: 48 kHz, AC3 Dolby Digital, 6 ch, ~384 kbps - Eng
General
Unique ID : 2956843782737647895262298653002890919 (0x23977A768A48A0011EF286A0348FEA7)
Complete name : F:\Look Away (2018) WEB-DLRip 1080p [Ukr(Mic),Eng Sub Eng].mkv
Format : Matroska
Format version : Version 4 / Version 2
File size : 3.72 GiB
Duration : 1 h 43 min
Overall bit rate : 5 172 kb/s
Movie name : UKR.TO release
Encoded date : UTC 2019-01-16 13:22:45
Writing application : mkvmerge v30.1.0 ('Forever And More') 32-bit
Writing library : libebml v1.3.6 + libmatroska v1.4.9
Cover : Yes
Attachments : cover_land.jpg / small_cover.jpg / small_cover_land.jpg / cover.jpg

Video
ID : 1
Format : AVC
Format/Info : Advanced Video Codec
Format profile : High@L4
Format settings : CABAC / 5 Ref Frames
Format settings, CABAC : Yes
Format settings, RefFrames : 5 frames
Codec ID : V_MPEG4/ISO/AVC
Duration : 1 h 43 min
Bit rate : 4 493 kb/s
Width : 1 916 pixels
Height : 800 pixels
Display aspect ratio : 2.40:1
Frame rate mode : Constant
Frame rate : 23.976 (24000/1001) FPS
Color space : YUV
Chroma subsampling : 4:2:0
Bit depth : 8 bits
Scan type : Progressive
Bits/(Pixel*Frame) : 0.122
Stream size : 3.23 GiB (87%)
Title : UKR.TO release
Language : English
Default : Yes
Forced : No
Color range : Limited
Color primaries : BT.709
Transfer characteristics : BT.709
Matrix coefficients : BT.709

Audio #1
ID : 2
Format : AC-3
Format/Info : Audio Coding 3
Format settings, Endianness : Big
Codec ID : A_AC3
Duration : 1 h 43 min
Bit rate mode : Constant
Bit rate : 192 kb/s
Channel(s) : 2 channels
Channel positions : Front: L R
Sampling rate : 48.0 kHz
Frame rate : 31.250 FPS (1536 SPF)
Bit depth : 16 bits
Compression mode : Lossy
Delay relative to video : -42 ms
Stream size : 142 MiB (4%)
Language : Ukrainian
Service kind : Complete Main
Default : Yes
Forced : No

Audio #2
ID : 3
Format : AC-3
Format/Info : Audio Coding 3
Format settings, Endianness : Big
Codec ID : A_AC3
Duration : 1 h 43 min
Bit rate mode : Constant
Bit rate : 384 kb/s
Channel(s) : 6 channels
Channel positions : Front: L C R, Side: L R, LFE
Sampling rate : 48.0 kHz
Frame rate : 31.250 FPS (1536 SPF)
Bit depth : 16 bits
Compression mode : Lossy
Delay relative to video : -42 ms
Stream size : 283 MiB (7%)
Title : ENG
Language : English
Service kind : Complete Main
Default : No
Forced : No

Text
ID : 4
Format : UTF-8
Codec ID : S_TEXT/UTF8
Codec ID/Info : UTF-8 Plain Text
Title : ENG
Language : English
Default : Yes
Forced : No

Menu
00:00:00.000 : en:01
00:06:22.000 : en:02
00:13:26.000 : en:03
00:19:18.000 : en:04
00:25:52.000 : en:05
00:33:28.000 : en:06
00:38:59.000 : en:07
00:46:32.000 : en:08
00:52:25.000 : en:09
00:59:59.000 : en:10
01:06:33.000 : en:11
01:12:19.000 : en:12
01:21:01.000 : en:13
01:24:38.000 : en:14
01:31:11.000 : en:15
01:39:50.000 : en:16
скриншот   скриншот   скриншот  
piratbit.org



Скачать Тёмное зеркало через торрент https://i84.fastpic.ru/big/2019/0118/92/08fa97137ede1ec29d36dec0ff35e292.jpg Скачать фильм Тёмное зеркало через торрент бесплантно в хорошем качестве Описание: У Марии нет друзей, и даже родители считают ее неудачницей. Свои секреты и обиды она доверяет только своему отражению в зеркале, ... 6 10 2
Торрент: Зарегистрирован [2019-01-18 07:21] · скачан: 29 раз
Статус: T временная
Размер: 3.72 GB
Как cкачать? Как скачать Тёмное зеркало через торрент | UTorrent

% Раздел Тема Автор DL S | L
Фильмы 2018 [DVDrip, WEB-DLRip, HDrip] (DUB, MVO) [ 1.41 GB ] Тёмное зеркало / Look Away [2018 BDRip] - Twi7ter Скачать
2 | 0
Фильмы (WEB-DL 720p, 1080p) [ 3.86 GB ] Тёмное зеркало / Look Away [2018 WEB-DL 1080p] Dub () Skandar2019 Скачать
1 | 0
Фильмы [HD 720p, 1080p] (Хороший звук DUB, MVO) [ 5.75 GB ] Тёмное зеркало / Look Away [2018 BDRip 720p] MVO [HDrezka Studio] + bober100 Скачать
1 | 0
Фильмы [HD 720p, 1080p] (Хороший звук DUB, MVO) [ 7.02 GB ] Тёмное зеркало / Look Away [2018 BDRip 1080p] MVO [HDrezka Studio] + bober100 Скачать
1 | 0
Фильмы 2018 [DVDrip, WEB-DLRip, HDrip] (DUB, MVO) [ 1.9 GB ] Тёмное зеркало / Look Away [2018 BDRip-AVC] bober100 Скачать
1 | 0
Фильмы 2018 [DVDrip, WEB-DLRip, HDrip] (DUB, MVO) [ 1.41 GB ] Тёмное зеркало / Look Away [2018 BDRip] bober100 Скачать
1 | 0
Фильмы 2018 [DVDrip, WEB-DLRip, HDrip] (DUB, MVO) [ 2.01 GB ] Тёмное зеркало / Look Away [2018 WEB-DLRip-AVC] MVO [HDRezka Studio] + bober100 Скачать
2 | 0


Последний раз редактировалось: killermax2013 (2019-01-18 07:22), всего редактировалось 1 раз

28-11-2019 20:33  

Отключить всю рекламу на сайте

18-01-2019 07:22 Тёмное зеркало Скачать торрент  

не шедевр точно но посмотреть можноpiratbit.org



    Дорогой пользователь! Огромная просьба, поблагодарите релизера, оцените раздачу и оставьте свои комментарий, если Вы скачали Тёмное зеркало через торрент бесплатно! Внесите свою лепту в развитие PiratBit!
    Комментировать посты могут только пользователи прошедшие не сложную регистрацию
    Показать сообщения:    

    Тёмное зеркало через торрент
    Скачать бесплатно Тёмное зеркало
    Тёмное зеркало скачать торрент
    Тёмное зеркало смотреть онлайн
    Cкачать фильм Тёмное зеркало бесплатно
    Тёмное зеркало скачать торрент в хорошем качестве
    Тёмное зеркало смотреть онлайн бесплатно в хорошем качестве


    Вы не можете начинать темы
    Вы не можете отвечать на сообщения
    Вы не можете редактировать свои сообщения
    Вы не можете удалять свои сообщения
    Вы не можете голосовать в опросах
    Вы не можете прикреплять файлы к сообщениям
    Вы можете скачивать файлы