Лицензия

MVO

1

1 сезон

Лицензия

Лицензия

13

MVO

1 сезон

Deluxe Edition

pack

Рекомендуем

30

Repack

ВАЖНО

ВАЖНО

Ghostwire

RePack

jed

RePack

fifa19

RePack

RDR2

RePack

NEED FOR SPEED™ PAYBACK

RePack

Кинопоиск HD

 Острые козырьки 6 сезон

6 сезон

FAR CRY 6

RePack

Лицензия

MVO

1

1 сезон

1 сезон

Лицензия

  

Никогда (Петр Тодоровский, Владимир Дьяченко) [1962, СССР, драма, DVDRip от AVP Studio]

Никогда через торрент piratbit.org

Размер: 1.09 GB | Добавлен: 3 года 8 мес. назад | Торрент скачан:5 раз
Смотреть онлайн Никогда | Скачать   

20-01-2019 08:57 Никогда Скачать торрент  

Никогда
Страна: СССР
Производство: Одесская киностудия

Жанр: драма
Год выпуска: 1962
Продолжительность: 01:24:52

Перевод: Не требуется
Cубтитры: нет
Оригинальная аудиодорожка: русский

Режиссер: Петр Тодоровский, Владимир Дьяченко

В ролях:
Евгений Евстигнеев, Нинель Мышкова, Пётр Горин, Станислав Хитров, Евгений Лавровский, Евгений Григорьев, Леонид Пархоменко, М. Львова, Валентина Владимирова, Валерий Носик, Т. Богданова, Светлана Живанкова, Олег Овечкин, Н. Глебова, Людмила Васильева...
Об актёрах подробней

Описание:
На большой судостроительный завод из Ленинграда приезжает новый директор Алексин. Всем окружающим тяжело общаться и сотрудничать с Алексиным, и постепенно между ним и всеми работниками завода возникает отчуждение, пустота, и он оказывается в полном одиночестве. Он осознает этот факт, пытается как-то изменить ситуацию, наладить отношения с подчиненными, но ничего не может изменить, наталкиваясь на ответную неприязнь...

Источник: DVD5 R5
Качество видео: DVDRip
Формат видео: AVI

Видео: 688х512 (4:3), 25 fps, XviD ~ 1636 kbps avg, 0.186 bit/pixel
Аудио: 48 kHz, Dolby Digital AC3 2.0, 192 kbps

Раздача от:
Общее
Полное имя : Nikogda.1962.DVDRip_[New-team]_by_AVP_Studio.avi
Формат : AVI
Формат/Информация : Audio Video Interleave
Размер файла : 1,09 Гбайт
Продолжительность : 1 ч. 24 м.
Общий поток : 1838 Кбит/сек
Программа кодирования : VirtualDubMod 1.5.10.3 | www.virtualdub-fr.org || (build 2550/release)
Библиотека кодирования : VirtualDubMod build 2550/release

Видео
Идентификатор : 0
Формат : MPEG-4 Visual
Профиль формата : Advanced Simple@L5
Настройки формата : BVOP1 / Custom Matrix
Параметр BVOP формата : 1
Параметр QPel формата : Нет
Параметр GMC формата : Без точки перехода
Параметр матрицы формата : Выборочная
Идентификатор кодека : XVID
Идентификатор кодека/Подсказка : XviD
Продолжительность : 1 ч. 24 м.
Битрейт : 1636 Кбит/сек
Ширина : 688 пикселей
Высота : 512 пикселей
Соотношение сторон : 4:3
Частота кадров : 25,000 кадров/сек
Цветовое пространство : YUV
Субдискретизация насыщенности : 4:2:0
Битовая глубина : 8 бит
Тип развёртки : Прогрессивная
Метод сжатия : С потерями
Бит/(Пиксели*Кадры) : 0.186
Размер потока : 993 Мбайт (89%)
Библиотека кодирования : XviD 73

Аудио
Идентификатор : 1
Формат : AC-3
Формат/Информация : Audio Coding 3
Коммерческое название : Dolby Digital
Идентификатор кодека : 2000
Продолжительность : 1 ч. 24 м.
Вид битрейта : Постоянный
Битрейт : 192 Кбит/сек
Каналы : 2 канала
Channel layout : L R
Частота : 48,0 КГц
Частота кадров : 31,250 кадров/сек (1536 SPF)
Битовая глубина : 16 бит
Метод сжатия : С потерями
Размер потока : 117 Мбайт (10%)
Выравнивание : Разделение по промежуткам
Продолжительность промежутка : 40 мс. (1,00 видеокадр)
Время предзагрузки промежутка : 500 мс



Скачать Никогда через торрент http://picplus.ru/img/1901/20/f781fb33.png Скачать, смотреть онлайн Никогда бесплантно в хорошем качестве Описание:На большой судостроительный завод из Ленинграда приезжает новый директор Алексин. Всем окружающим тяжело общаться и сотрудничать с ... 5 10 1
Торрент: Зарегистрирован [2019-01-20 08:57] · скачан: 5 раз
Статус: √ проверено
Размер: 1.09 GB
Как cкачать? Как скачать Никогда через торрент | UTorrent

% Раздел Тема Автор DL S | L
Кино СССР [ 1.09 GB ] Никогда | | DVDRip-AVC от AVP Studio AVP Studio Скачать
1 | 0

28-11-2019 20:33  

Отключить вcю реклaмy на сайте

    Дорогой пользователь! Огромная просьба, поблагодарите релизера, оцените раздачу и оставьте свои комментарий, если Вы скачали Никогда через торрент бесплатно!!
    Комментировать посты могут только пользователи прошедшие не сложную регистрацию
    Показать сообщения:    


    Никогда через торрент
    Скачать бесплатно Никогда
    Никогда скачать торрент
    Никогда смотреть онлайн
    Cкачать фильм Никогда бесплатно
    Никогда скачать торрент в хорошем качестве
    Никогда смотреть онлайн бесплатно в хорошем качестве
    Вы не можете начинать темы
    Вы не можете отвечать на сообщения
    Вы не можете редактировать свои сообщения
    Вы не можете удалять свои сообщения
    Вы не можете голосовать в опросах
    Вы не можете прикреплять файлы к сообщениям
    Вы можете скачивать файлы