Ссылка на приватное зеркало нашего сайта всего за 1$. Внимание количество ограничено!!!

2 сезон

iTunes

iTunes

1

iTunes

iTunes

iTunes

WEBRip

iTunes

30
pack

Забери бонус

ВАЖНО

!!Акция!!

Alien_RageХит недели

RePack

RESIDENT EVIL 3: NEMESIS REMAKE

ИГРА 18+

pack

RePack

jed

!!Акция!!

Alien_Rage

RePack

fifa19

RePack

Assassins Creed: Odyssey

RePack

NEED FOR SPEED™ PAYBACK

4 сезон

9 сезон

Бесстыжие 9 сезон

Все сериалы

все сериалы на PB.wtf

RePack

FAR CRY 5
  

Сдохни, Джон Такер! / John Tucker Must Die (Бетти Томас) [2006 г., мелодрама, комедия, BDRip AVC] DUB piratbit.org

Сдохни, Джон Такер! через торрент piratbit.org

Размер: 2.03 GB | Добавлен: 1 год 8 мес. назад | Торрент скачан:7 раз
Скачать  

20-01-2019 19:49 Сдохни, Джон Такер! Скачать торрент  

Сдохни, Джон Такер! / John Tucker Must Die
Год выпуска: 2006

Страна: США, Канада

Жанр: Мелодрама, комедия

Продолжительность: 01:29:41

Перевод: Дубляж

Режиссер: Бетти Томас

rating

В ролях: Джесси Меткалф, Бриттани Сноу, Ашанти, София Буш, Ариэль Кеббел, Пенн Бэджли, Дженни МакКарти, Фацо-Фасано, Кевин МакНалти, Патриция Дрэйк

Описание: Три бывшие подружки крутого школьного ловеласа решают ему отомстить. Для приведения жестокого плана в действие нужна приманка. Выбор падает на только что переехавшую в их школу очаровательную блондиночку…
Качество: BDRip AVC
Формат: MKV
Видео кодек: MPEG-4 AVC
Аудио кодек: AC3
Видео: MPEG-4 AVC, 2800 Кбит/с, 1024x560
Аудио: Русский, AC3, 6 ch, 448 Кбит/с
Видео
Идентификатор : 1
Формат : AVC
Формат/Информация : Advanced Video Codec
Профиль формата : High@L4.1
Настройки формата : CABAC / 10 Ref Frames
Параметр CABAC формата : Да
Параметр RefFrames формата : 10 кадров
Режим смешивания : Header stripping
Идентификатор кодека : V_MPEG4/ISO/AVC
Продолжительность : 1 ч. 29 м.
Битрейт : 2800 Кбит/сек
Ширина : 1024 пикселя
Высота : 560 пикселей
Соотношение сторон : 1,85:1
Режим частоты кадров : Постоянный
Частота кадров : 23,976 (24000/1001) кадра/сек
Цветовое пространство : YUV
Субдискретизация насыщенности : 4:2:0
Битовая глубина : 8 бит
Тип развёртки : Прогрессивная
Бит/(Пиксели*Кадры) : 0.204
Размер потока : 1,71 Гбайт (84%)
Библиотека кодирования : x264 core 116 r2074 2641b9e
Настройки программы : cabac=1 / ref=10 / deblock=1:-3:-3 / analyse=0x3:0x133 / me=umh / subme=10 / psy=1 / psy_rd=1.00:0.10 / mixed_ref=1 / me_range=48 / chroma_me=1 / trellis=2 / 8x8dct=1 / cqm=0 / deadzone=21,11 / fast_pskip=0 / chroma_qp_offset=-3 / threads=6 / sliced_threads=0 / nr=0 / decimate=1 / interlaced=0 / bluray_compat=0 / constrained_intra=0 / bframes=5 / b_pyramid=2 / b_adapt=2 / b_bias=0 / direct=3 / weightb=1 / open_gop=0 / weightp=2 / keyint=250 / keyint_min=23 / scenecut=40 / intra_refresh=0 / rc_lookahead=40 / rc=2pass / mbtree=1 / bitrate=2800 / ratetol=1.0 / qcomp=0.60 / qpmin=10 / qpmax=51 / qpstep=4 / cplxblur=20.0 / qblur=0.5 / ip_ratio=1.40 / aq=1:1.00
Default : Нет
Forced : Нет

Аудио
Идентификатор : 2
Формат : AC-3
Формат/Информация : Audio Coding 3
Коммерческое название : Dolby Digital
Режим смешивания : Header stripping
Идентификатор кодека : A_AC3
Продолжительность : 1 ч. 29 м.
Вид битрейта : Постоянный
Битрейт : 448 Кбит/сек
Каналы : 6 каналов
Channel layout : L R C LFE Ls Rs
Частота : 48,0 КГц
Частота кадров : 31,250 кадров/сек (1536 SPF)
Битовая глубина : 16 бит
Метод сжатия : С потерями
Размер потока : 287 Мбайт (14%)
Заголовок : Дубляж
Язык : Russian
ServiceKind/String : Complete Main
Default : Да
Forced : Да

скриншот   скриншот   скриншот   скриншот   скриншот  

piratbit.org



Скачать Сдохни, Джон Такер! через торрент http://pic1.kartinco.top/images/12/g4ob2.jpg Скачать фильм Сдохни, Джон Такер! через торрент бесплантно в хорошем качестве Описание: Три бывшие подружки крутого школьного ловеласа решают ему отомстить. Для приведения жестокого плана в действие нужна приманка. ... 10 10 2
Торрент: Зарегистрирован [2019-01-20 19:49] · скачан: 7 раз
Статус: √ проверено
Размер: 2.03 GB
Как cкачать? Как скачать Сдохни, Джон Такер! через торрент | qTorrent

% Раздел Тема Автор DL S | L
Фильмы [HD 720p, 1080p] (Хороший звук DUB, MVO) [ 12.06 GB ] Сдохни Джон Такер / John Tucker Must Die [2006 BDRip 1080p by msltel] DUB MVO msltel Скачать
1 | 0
Фильмы [HD 720p, 1080p] (Хороший звук DUB, MVO) [ 4.45 GB ] Сдохни Джон Такер / John Tucker Must Die [2006 BDRip 720p by msltel] DUB MVO msltel Скачать
1 | 0
Фильмы 2006-2008 [ 744 MB ] Сдохни Джон Такер! / John Tucker Must Die [2006 HDRip] Dub markfiter Скачать
1 | 0

28-11-2019 20:33  

Отключить всю рекламу на сайте

    Дорогой пользователь! Огромная просьба, поблагодарите релизера, оцените раздачу и оставьте свои комментарий, если Вы скачали Сдохни, Джон Такер! через торрент бесплатно! Внесите свою лепту в развитие PiratBit!
    Комментировать посты могут только пользователи прошедшие не сложную регистрацию
    Показать сообщения:    

    Сдохни, Джон Такер! через торрент
    Скачать бесплатно Сдохни, Джон Такер!
    Сдохни, Джон Такер! скачать торрент
    Сдохни, Джон Такер! смотреть онлайн
    Cкачать фильм Сдохни, Джон Такер! бесплатно
    Сдохни, Джон Такер! скачать торрент в хорошем качестве
    Сдохни, Джон Такер! смотреть онлайн бесплатно в хорошем качестве


    Вы не можете начинать темы
    Вы не можете отвечать на сообщения
    Вы не можете редактировать свои сообщения
    Вы не можете удалять свои сообщения
    Вы не можете голосовать в опросах
    Вы не можете прикреплять файлы к сообщениям
    Вы можете скачивать файлы