1 сезон

1 сезон

iTunes

1

КиноПоиск HD

Кинопоиск HD

iTunes

13

1 сезон

RePack

30

Deluxe

ВАЖНО

ИГРА 18+

pack

RePack

MK11
pack

Легкие деньги

RePack

jed

RePack

fifa19

RePack

RDR2

RePack

NEED FOR SPEED™ PAYBACK

4 сезон

9 сезон

Бесстыжие 9 сезон

Все сериалы

все сериалы на PB.wtf

RePack

FAR CRY 5
  
Magnet ссылка

Чёрный тюльпан / La tulipe noire (Кристиан-Жак) [1964, приключения, комедия, боевик, BDRip 720p by msltel] DUB, MVO piratbit.org

Чёрный тюльпан через торрент piratbit.org

Раздают: 1 [ 26 KB/s ]
Размер: 4.93 GB | Добавлен: 2 года 3 мес. назад | Торрент скачан:74 раза
Скачать  

21-01-2019 07:45 Чёрный тюльпан Скачать торрент  

Название: Чёрный тюльпан
Оригинальное название: La tulipe noire
Год выпуска: 1964
Страна: Франция, Италия, Испания
Жанр: приключения, комедия, боевик
Продолжительность: 01:53:30
Перевод: дублированный, профессиональный многоголосый

Режиссер: Кристиан-Жак
В ролях: Ален Делон, Вирна Лизи, Адольфо Марсийяк, Дон Аддамс, Аким Тамирофф, Лаура Валенсуэла, Жорж Риго, Франсис Бланш, Хосе Хаспе, Перла Кристал, Хосе Луис Пеликена, Энрике Авила, Альваро Де Луна, Робер Манюэль, Иван Шиффр, Люсьен Калламан, Сантьяго Онтаньон

О фильме: Накануне Французской революции в тихой провинции жуткий страх наводит на знатных мерзавцев таинственный разбойник в маске, чьим фирменным знаком стал чёрный тюльпан. Неуловимый мститель находчив, бесстрашен, благороден и умён. Он прекрасный наездник и гений фехтования. Дворянин Жульен — беспечный неженка, глупый и трусливый — совсем на него не похож. Но никто не знает, что есть нечто, крепко связывающее этих двоих...



Качество: BDRip 720p
Формат: MKV
Видео: MPEG-4 AVC, 5382 Кбит/с, 1280x568
Аудио 1: русский, AC3, 192 kbps, 2 ch, 48 kHz [дублированный с добавлением MVO]
Аудио 2: русский, AC3, 448 kbps, 6 ch, 48 kHz [закадровый многоголосый, R5]
Аудио 3: французский, AC3, 192 kbps, 2 ch, 48 kHz [оригинал]
Субтитры 1: русские
Субтитры 2: английские
Субтитры 3: немецкие
Главы/чаптеры
Общее
Уникальный идентификатор : 244359688838046145408378974421965276533 (0xB7D5F6D561823FFF93C74484D6330575)
Полное имя : D:\Video\Чёрный тюльпан.1964.BDRip 720p by msltel.mkv
Формат : Matroska
Версия формата : Version 4
Размер файла : 4,93 Гбайт
Продолжительность : 1 ч. 53 м.
Общий поток : 6217 Кбит/сек
Название фильма : Rip by msltel
Дата кодирования : UTC 2019-01-21 07:22:19
Программа кодирования : mkvmerge v8.2.0 ('World of Adventure') 64bit
Библиотека кодирования : libebml v1.3.1 + libmatroska v1.4.2

Видео
Идентификатор : 1
Формат : AVC
Формат/Информация : Advanced Video Codec
Профиль формата : High@L4.1
Настройки формата : CABAC / 9 Ref Frames
Параметр CABAC формата : Да
Параметр RefFrames формата : 9 кадров
Идентификатор кодека : V_MPEG4/ISO/AVC
Продолжительность : 1 ч. 53 м.
Битрейт : 5382 Кбит/сек
Ширина : 1280 пикселей
Высота : 568 пикселей
Соотношение сторон : 2,25:1
Режим частоты кадров : Постоянный
Частота кадров : 24,000 кадра/сек
Цветовое пространство : YUV
Субдискретизация насыщенности : 4:2:0
Битовая глубина : 8 бит
Тип развёртки : Прогрессивная
Бит/(Пиксели*Кадры) : 0.308
Размер потока : 4,27 Гбайт (87%)
Библиотека кодирования : x264 core 157 r2935 545de2f
Настройки программы : cabac=1 / ref=9 / deblock=1:-2:-2 / analyse=0x3:0x113 / me=umh / subme=11 / psy=1 / psy_rd=1.00:0.15 / mixed_ref=1 / me_range=32 / chroma_me=1 / trellis=2 / 8x8dct=1 / cqm=0 / deadzone=21,11 / fast_pskip=0 / chroma_qp_offset=-3 / threads=6 / lookahead_threads=1 / sliced_threads=0 / nr=0 / decimate=1 / interlaced=0 / bluray_compat=0 / constrained_intra=0 / bframes=9 / b_pyramid=2 / b_adapt=2 / b_bias=0 / direct=1 / weightb=1 / open_gop=0 / weightp=2 / keyint=230 / keyint_min=23 / scenecut=40 / intra_refresh=0 / rc_lookahead=40 / rc=crf / mbtree=0 / crf=19.8 / qcomp=0.60 / qpmin=0 / qpmax=69 / qpstep=4 / vbv_maxrate=62500 / vbv_bufsize=78125 / crf_max=0.0 / nal_hrd=none / filler=0 / ip_ratio=1.40 / pb_ratio=1.30 / aq=1:1.00
Язык : French
Default : Да
Forced : Нет

Аудио #1
Идентификатор : 2
Формат : AC-3
Формат/Информация : Audio Coding 3
Коммерческое название : Dolby Digital
Идентификатор кодека : A_AC3
Продолжительность : 1 ч. 53 м.
Вид битрейта : Постоянный
Битрейт : 192 Кбит/сек
Каналы : 2 канала
Channel layout : L R
Частота : 48,0 КГц
Частота кадров : 31,250 кадров/сек (1536 SPF)
Битовая глубина : 16 бит
Метод сжатия : С потерями
Размер потока : 156 Мбайт (3%)
Заголовок : DUB с добавлением MVO
Язык : Russian
ServiceKind/String : Complete Main
Default : Да
Forced : Нет

Аудио #2
Идентификатор : 3
Формат : AC-3
Формат/Информация : Audio Coding 3
Коммерческое название : Dolby Digital
Идентификатор кодека : A_AC3
Продолжительность : 1 ч. 53 м.
Вид битрейта : Постоянный
Битрейт : 448 Кбит/сек
Каналы : 6 каналов
Channel layout : L R C LFE Ls Rs
Частота : 48,0 КГц
Частота кадров : 31,250 кадров/сек (1536 SPF)
Битовая глубина : 16 бит
Метод сжатия : С потерями
Размер потока : 364 Мбайт (7%)
Заголовок : MVO R5
Язык : Russian
ServiceKind/String : Complete Main
Default : Нет
Forced : Нет

Аудио #3
Идентификатор : 4
Формат : AC-3
Формат/Информация : Audio Coding 3
Коммерческое название : Dolby Digital
Идентификатор кодека : A_AC3
Продолжительность : 1 ч. 53 м.
Вид битрейта : Постоянный
Битрейт : 192 Кбит/сек
Каналы : 2 канала
Channel layout : L R
Частота : 48,0 КГц
Частота кадров : 31,250 кадров/сек (1536 SPF)
Битовая глубина : 16 бит
Метод сжатия : С потерями
Размер потока : 156 Мбайт (3%)
Заголовок : original
Язык : French
ServiceKind/String : Complete Main
Default : Нет
Forced : Нет

Текст #1
Идентификатор : 5
Формат : UTF-8
Идентификатор кодека : S_TEXT/UTF8
Идентификатор кодека/Информация : UTF-8 Plain Text
Продолжительность : 1 ч. 52 м.
Битрейт : 82 бит/сек
ElementCount : 1152
Размер потока : 68,4 Кбайт (0%)
Заголовок : русские
Язык : Russian
Default : Нет
Forced : Нет

Текст #2
Идентификатор : 6
Формат : UTF-8
Идентификатор кодека : S_TEXT/UTF8
Идентификатор кодека/Информация : UTF-8 Plain Text
Продолжительность : 1 ч. 52 м.
Битрейт : 61 бит/сек
ElementCount : 1309
Размер потока : 50,6 Кбайт (0%)
Заголовок : английские
Язык : Russian
Default : Нет
Forced : Нет

Текст #3
Идентификатор : 7
Формат : UTF-8
Идентификатор кодека : S_TEXT/UTF8
Идентификатор кодека/Информация : UTF-8 Plain Text
Продолжительность : 1 ч. 52 м.
Битрейт : 67 бит/сек
ElementCount : 1338
Размер потока : 55,5 Кбайт (0%)
Заголовок : немецкие
Язык : Russian
Default : Нет
Forced : Нет

Меню
00:00:00.000 : :Chapter 1
00:04:37.082 : :Chapter 2
00:11:17.917 : :Chapter 3
00:23:11.416 : :Chapter 4
00:27:25.000 : :Chapter 5
00:33:15.333 : :Chapter 6
00:44:07.167 : :Chapter 7
00:48:54.542 : :Chapter 8
00:59:35.042 : :Chapter 9
01:04:40.792 : :Chapter 10
01:10:28.292 : :Chapter 11
01:18:22.125 : :Chapter 12
01:23:20.292 : :Chapter 13
01:33:13.082 : :Chapter 14
01:41:40.542 : :Chapter 15
01:46:42.875 : :Chapter 16
piratbit.org



Скачать Чёрный тюльпан через торрент https://b.radikal.ru/b18/1901/d8/e037aa7e4fd3.jpg Скачать фильм Чёрный тюльпан через торрент бесплантно в хорошем качестве О фильме: Накануне Французской революции в тихой провинции жуткий страх наводит на знатных мерзавцев таинственный разбойник в маске, чьим ... 9 10 10
Info! Золотая раздача, скачанное не засчитывается.
Торрент: Зарегистрирован [2019-01-21 07:45] · скачан: 74 раз
Статус: √ проверено
Размер: 4.93 GB
Как cкачать? Как скачать Чёрный тюльпан через торрент | UTorrent

% Раздел Тема Автор DL S | L
Классика зарубежного кино [ 14.32 GB ] Чёрный тюльпан / La tulipe noire [1964 BDRip 1080p by msltel] DUB MVO msltel Скачать
1 | 0
Классика зарубежного кино [ 8.93 GB ] Чёрный тюльпан / La tulipe noire [1963 BDRip-HEVC 1080p] DUB + MVO RealOldGamer Скачать
2 | 0

28-11-2019 20:33  

Отключить всю рекламу на сайте

01-03-2021 16:00 Чёрный тюльпан Скачать торрент  

Топик был перенесен из форума Фильмы [HD 720p, 1080p] (Хороший звук DUB, MVO) в форум Классика зарубежного кино


bober100piratbit.org



    Дорогой пользователь! Огромная просьба, поблагодарите релизера, оцените раздачу и оставьте свои комментарий, если Вы скачали Чёрный тюльпан через торрент бесплатно! Внесите свою лепту в развитие PiratBit!
    Комментировать посты могут только пользователи прошедшие не сложную регистрацию
    Показать сообщения:    

    Чёрный тюльпан через торрент
    Скачать бесплатно Чёрный тюльпан
    Чёрный тюльпан скачать торрент
    Чёрный тюльпан смотреть онлайн
    Cкачать фильм Чёрный тюльпан бесплатно
    Чёрный тюльпан скачать торрент в хорошем качестве
    Чёрный тюльпан смотреть онлайн бесплатно в хорошем качестве


    Вы не можете начинать темы
    Вы не можете отвечать на сообщения
    Вы не можете редактировать свои сообщения
    Вы не можете удалять свои сообщения
    Вы не можете голосовать в опросах
    Вы не можете прикреплять файлы к сообщениям
    Вы можете скачивать файлы