MEGA SALE -50% FORZA HORIZON 4 ULTIMATE+ВСЕ DLC+ОНЛАЙН всего за 599р. 299 руб. (супер цена). Внимание количество ограничено!!!

iTunes

1+1

iTunes

мы

iTunes

1

iTunes

Чернобыль

iTunes

Ральф против интернета

Лицензия

ПШазам

Лицензия

Игра престолов

Лицензия

30
pack

ВАЖНО

!!Акция!!

Alien_RageХит недели

RePack

Resident Evil 21

ИГРА 18+

pack

RePack

Metro:Exodus

!!Акция!!

Alien_Rage

RePack

fifa19

RePack

Assassins Creed: Odyssey

RePack

NEED FOR SPEED™ PAYBACK

3 сезон

9 сезон

Бесстыжие 9 сезон

Все сериалы

все сериалы на PB.wtf

RePack

FAR CRY 5
Ребята, катастрофически не хватает 7730р. для оплаты серверов за АВГУСТ (всвязи с блокировками трафик упал в 3 раза), 1-2р., выручайте.
  

Орвилл / The Orville / Сезон: 2 / Серии: 1-12 из 14 (Брэннон Брага, Джон Кассар, Джеймс Л. Конуэй) [2019, Фантастика, драма, комедия, WEBRip] [MVO] (GostFilm) piratbit.org

Орвилл через торрент piratbit.org

Размер: 7.47 GB | Добавлен: 5 мес. 3 д. назад | Торрент скачан:2 раза
Скачать  

01-01-2019 13:51 Орвилл Скачать торрент  

Орвилл | The Orville

Год выпуска: 2019
Страна: США, 20th Century Fox Television, Fuzzy Door Productions, Twentieth Century Fox Television
Жанр: Фантастика, драма, комедия
Продолжительность: ~ 00:45:00
Перевод: Любительский (многоголосый закадровый) | [GostFilm]

Режиссёр: Брэннон Брага, Джон Кассар, Джеймс Л. Конуэй

В ролях: Сет МакФарлейн, Скотт Граймз, Пенни Джонсон, Питер Макон, Эдрианн Палики, Холстон Сейдж, Ларри Джо Кэмпбелл, Норм МакДональд

Описание: 25 столетие – это время когда, человечеству перестало хватать планеты Земля, как источника еды и ресурсов, необходимых для жизни. К тому же все уголки родной планеты уже давно изучены и хочется чего-то большего – новых открытий, иных рас, необычных изобретений, которые можно будет у них выменять на свои какие-то технические достижения. Поставив за цель, ведущие умы человечества достигают ее. Им удается выйти на связь с другими разумными существами, что обитают во вселенной. Следующий шаг – это построить огромный космический корабль, который поможет покорить космические просторы и изучить все воочию. Проект получает название Орвилл и отдается под руководство молодого капитана Мерсера, у которого сейчас в жизни не самый простой период. Он разлучается с супругой, но не смотря на это не упивается горем, а старается наоборот переключиться на что-то иное и космическое путешествие подходит для этого как нельзя лучше.



Качество: WEBRip
Формат: AVI
Видео: MPEG-4 FMP4, ~ 1592 Кбит/с, 720x400
Аудио: MP3, 48,0 КГц, 2 ch, 320 kbps - [RUS]
General
Complete name : E:\The.Orville.S02.400p.GostFilm\The.Orville.S02E01.400p.GostFilm.avi
Format : AVI
Format/Info : Audio Video Interleave
File size : 641 MiB
Duration : 49 min 7 s
Overall bit rate : 1 826 kb/s
Writing application : Lavf56.36.100

Video
ID : 1
Format : MPEG-4 Visual
Format profile : Simple@L1
Format settings, BVOP : No
Format settings, QPel : No
Format settings, GMC : No warppoints
Format settings, Matrix : Default (H.263)
Codec ID : FMP4
Duration : 49 min 7 s
Bit rate : 1 424 kb/s
Width : 720 pixels
Height : 400 pixels
Display aspect ratio : 16:9
Frame rate : 25.000 FPS
Color space : YUV
Chroma subsampling : 4:2:0
Bit depth : 8 bits
Scan type : Progressive
Compression mode : Lossy
Bits/(Pixel*Frame) : 0.198
Stream size : 500 MiB (78%)
Writing library : Lavc56.41.100

Audio
ID : 0
Format : MPEG Audio
Format version : Version 1
Format profile : Layer 3
Format settings : Joint stereo
Mode : Joint stereo
Codec ID : 55
Codec ID/Hint : MP3
Duration : 49 min 7 s
Bit rate mode : Constant
Bit rate : 320 kb/s
Channel(s) : 2 channels
Sampling rate : 48.0 kHz
Compression mode : Lossy
Stream size : 112 MiB (18%)
Alignment : Aligned on interleaves
Writing library : LAME3.99.5
скриншот  скриншот  скриншот  
Когда раздача ведётся путём добавления новых серий, при каждом добавлении создётся новый торрент. Чтобы начать докачку новой серии, пользователям необходимо сделать следующее:
(1) остановить скачивание,
(2) удалить старый торрент у себя из клиента (старые серии удалять не надо),
(3) скачать новый торрент и запустить его у себя в клиенте вместо старого, при этом указать клиенту путь в старую папку, куда и должно происходить скачивание новых серий.
Ваш клиент при этом должен произвести хеширование (проверку) старой папки (если не производит сам - помогите ему сделать это), и будет докачивать только те серии, которых у вас ещё нет. Старые серии при этом не удаляются, а продолжают раздаваться!
Eсли вы уже удалили старые серии, то предотвратить повторную закачку старых серий можно, отжав галочку в соответсвующих местах при запуске нового торрента. По возможности, желательно не удалять старые серии как можно дольше, чтобы релизёр не столько продолжал раздавать старые серии, а смог сконцентрироваться на новых.
piratbit.org



Скачать Орвилл через торрент http://s019.radikal.ru/i642/1709/36/47d3d8ed12f9.jpg Скачать фильм Орвилл через торрент бесплантно в хорошем качестве Описание: 25 столетие – это время когда, человечеству перестало хватать планеты Земля, как источника еды и ресурсов, необходимых для жизни. ... 7.8 10 4
Торрент: Зарегистрирован [2019-04-15 16:44] · скачан: 2 раз
Статус: √ проверено
Размер: 7.47 GB
Как cкачать? Как скачать Орвилл через торрент | qTorrent

% Раздел Тема Автор DL S | L
Зарубежные сериалы [ 6.65 GB ] Орвилл / The Orville / Сезон: 2 / Серии: 1-12 из 14 [2019 WEB-DLRip] [MVO] killermax2013 Скачать
1 | 0
Зарубежные сериалы [ 18.2 GB ] Орвилл / The Orville / Сезон: 2 / Серии: 1-12 из 14 [2019 WEB-DL 720p] [MVO] killermax2013 Скачать
2 | 0
Зарубежные сериалы [ 18.49 GB ] Орвилл / The Orville / Сезон: 2 / Серии: 1-12 из 14 [2019 WEB-DL 720p] [MVO] killermax2013 Скачать
1 | 0


>> Регистрируемся здесь <<






Отзывы и комментарии о схеме читаем и пишем здесь: ---> Отзывы и комментарии о схеме

Новые благодарочки в телеграм довольных пользователей:
скриншот   скриншот   скриншот   скриншот   скриншот

21-07-2019 11:20 Орвилл Скачать торрент  

Топик был перенесен из форума Зарубежные сериалы в форум Для поглощённых раздач


bober100piratbit.org



    Дорогой пользователь! Огромная просьба, поблагодарите релизера, оцените раздачу и оставьте свои комментарий, если Вы скачали Орвилл через торрент бесплатно! Внесите свою лепту в развитие PiratBit!
    Комментировать посты могут только пользователи прошедшие не сложную регистрацию
    Показать сообщения:    

    Орвилл через торрент
    Скачать бесплатно Орвилл
    Орвилл скачать торрент
    Орвилл смотреть онлайн
    Cкачать фильм Орвилл бесплатно
    Орвилл скачать торрент в хорошем качестве
    Орвилл смотреть онлайн бесплатно в хорошем качестве


    Вы не можете начинать темы
    Вы не можете отвечать на сообщения
    Вы не можете редактировать свои сообщения
    Вы не можете удалять свои сообщения
    Вы не можете голосовать в опросах
    Вы не можете прикреплять файлы к сообщениям
    Вы можете скачивать файлы