Доктор Стрэндж

Лицензия

Добыча

MVO

Дом дракона

1 сезон

Тор

Лицензия

Мэверик

Лицензия

Там, где раки поют

MVO

Властелин колец

1 сезон

Ultimate

pack

Рекомендуем

30

Repack

ВАЖНО

ВАЖНО

Ghostwire

RePack

jed

RePack

nioh2

RePack

RDR2

RePack

NEED FOR SPEED™ PAYBACK

RePack

скачать торрент

Кинопоиск HD

Острые козырьки 6 сезон

6 сезон

FAR CRY 6

RePack

скачать торрент

Лицензия

скачать торрент

MVO

1

1 сезон

скачать торрент

1 сезон

скачать торрент

Лицензия

  

Дикая собака Динго (Юлий Карасик) [1962, СССР, драма, DVDRip от AVP Studio]

Дикая собака Динго через торрент piratbit.org

Размер: 1.09 GB | Добавлен: 3 года 8 мес. назад | Торрент скачан:5 раз
Смотреть онлайн Дикая собака Динго | Скачать   

22-01-2019 10:32 Дикая собака Динго Скачать торрент  

Дикая собака Динго
Страна: СССР
Производство: Ленфильм

Жанр: драма
Год выпуска: 1962
Продолжительность: 01:32:50

Перевод: Не требуется
Cубтитры: нет
Оригинальная аудиодорожка: русский

Режиссер: Юлий Карасик

В ролях:
Галина Польских, Владимир Особик, Талас Умурзаков, Анна Родионова, Инна Кондратьева, Николай Тимофеев, Тамара Логинова, Ирина Радченко...
Об актёрах подробней

Описание:
Фильм по повести Р. Фрайермана "Дикая собака Динго или Повесть о первой любви" переносит зрителя в прекрасный мир юности, где водится Дикая собака Динго и цветет волшебный Цветок Саранка. В город, где живет с мамой Таня Сабанеева (Галина Польских), приезжает ее отец со своей новой женой и приемным сыном Колей. Об удивительно светлой, чистой, но и такой пронзительно горькой первой любви Коли и Тани рассказывает этот фильм.

Источник: DVD5 R5
Качество видео: DVDRip
Формат видео: AVI

Видео: 704х496 (1,419:1), 25 fps, XviD ~ 1476 kbps avg, 0.169 bit/pixel
Аудио: 48 kHz, Dolby Digital AC3 2.0, 192 kbps

Раздача от:
Общее
Полное имя : Dikaya.sobaka.Dingo.1962.DVDRip_[New-team]_by_AVP_Studio.avi
Формат : AVI
Формат/Информация : Audio Video Interleave
Размер файла : 1,09 Гбайт
Продолжительность : 1 ч. 32 м.
Общий поток : 1677 Кбит/сек
Программа кодирования : VirtualDubMod 1.5.10.3 | www.virtualdub-fr.org || (build 2550/release)
Библиотека кодирования : VirtualDubMod build 2550/release

Видео
Идентификатор : 0
Формат : MPEG-4 Visual
Профиль формата : Advanced Simple@L5
Настройки формата : BVOP1 / Custom Matrix
Параметр BVOP формата : 1
Параметр QPel формата : Нет
Параметр GMC формата : Без точки перехода
Параметр матрицы формата : Выборочная
Идентификатор кодека : XVID
Идентификатор кодека/Подсказка : XviD
Продолжительность : 1 ч. 32 м.
Битрейт : 1476 Кбит/сек
Ширина : 704 пикселя
Высота : 496 пикселей
Соотношение сторон : 1,419
Частота кадров : 25,000 кадров/сек
Цветовое пространство : YUV
Субдискретизация насыщенности : 4:2:0
Битовая глубина : 8 бит
Тип развёртки : Прогрессивная
Метод сжатия : С потерями
Бит/(Пиксели*Кадры) : 0.169
Размер потока : 980 Мбайт (88%)
Библиотека кодирования : XviD 73

Аудио
Идентификатор : 1
Формат : AC-3
Формат/Информация : Audio Coding 3
Коммерческое название : Dolby Digital
Идентификатор кодека : 2000
Продолжительность : 1 ч. 32 м.
Вид битрейта : Постоянный
Битрейт : 192 Кбит/сек
Каналы : 2 канала
Channel layout : L R
Частота : 48,0 КГц
Частота кадров : 31,250 кадров/сек (1536 SPF)
Битовая глубина : 16 бит
Метод сжатия : С потерями
Размер потока : 127 Мбайт (11%)
Выравнивание : Разделение по промежуткам
Продолжительность промежутка : 40 мс. (1,00 видеокадр)
Время предзагрузки промежутка : 500 мс



Скачать Дикая собака Динго через торрент http://picplus.ru/img/1901/22/0fa8145e.png Скачать, смотреть онлайн Дикая собака Динго бесплантно в хорошем качестве Описание:Фильм по повести Р. Фрайермана "Дикая собака Динго или Повесть о первой любви" переносит зрителя в прекрасный мир юности, где ... 5 10 1
Info! Золотая раздача, скачанное не засчитывается.
Торрент: Зарегистрирован [2019-01-22 10:32] · скачан: 5 раз
Статус: √ проверено
Размер: 1.09 GB
Как cкачать? Как скачать Дикая собака Динго через торрент | UTorrent

% Раздел Тема Автор DL S | L
Кино СССР [ 1.09 GB ] Дикая собака Динго | | DVDRip-AVC от AVP Studio AVP Studio Скачать
1 | 0

28-11-2019 20:33  

Отключить вcю реклaмy на сайте

    Дорогой пользователь! Огромная просьба, поблагодарите релизера, оцените раздачу и оставьте свои комментарий, если Вы скачали Дикая собака Динго через торрент бесплатно!!
    Комментировать посты могут только пользователи прошедшие не сложную регистрацию
    Показать сообщения:    


    Дикая собака Динго через торрент
    Скачать бесплатно Дикая собака Динго
    Дикая собака Динго скачать торрент
    Дикая собака Динго смотреть онлайн
    Cкачать фильм Дикая собака Динго бесплатно
    Дикая собака Динго скачать торрент в хорошем качестве
    Дикая собака Динго смотреть онлайн бесплатно в хорошем качестве
    Вы не можете начинать темы
    Вы не можете отвечать на сообщения
    Вы не можете редактировать свои сообщения
    Вы не можете удалять свои сообщения
    Вы не можете голосовать в опросах
    Вы не можете прикреплять файлы к сообщениям
    Вы можете скачивать файлы