Доктор Стрэндж

Лицензия

Добыча

MVO

Дом дракона

1 сезон

Тор

Лицензия

Мэверик

Лицензия

Там, где раки поют

MVO

Властелин колец

1 сезон

Ultimate

pack

Рекомендуем

30

Repack

ВАЖНО

ВАЖНО

Ghostwire

RePack

jed

RePack

nioh2

RePack

RDR2

RePack

NEED FOR SPEED™ PAYBACK

RePack

скачать торрент

Кинопоиск HD

Острые козырьки 6 сезон

6 сезон

FAR CRY 6

RePack

скачать торрент

Лицензия

скачать торрент

MVO

1

1 сезон

скачать торрент

1 сезон

скачать торрент

Лицензия

  

Дикая собака Динго (Юлий Карасик) [1962, СССР, драма, DVDRip-AVC от AVP Studio]

Дикая собака Динго через торрент piratbit.org

Размер: 1.09 GB | Добавлен: 3 года 8 мес. назад | Торрент скачан:15 раз
Смотреть онлайн Дикая собака Динго | Скачать   

22-01-2019 10:33 Дикая собака Динго Скачать торрент  

Дикая собака Динго
Страна: СССР
Производство: Ленфильм

Жанр: драма
Год выпуска: 1962
Продолжительность: 01:32:50

Перевод: Не требуется
Cубтитры: нет
Оригинальная аудиодорожка: русский

Режиссер: Юлий Карасик

В ролях:
Галина Польских, Владимир Особик, Талас Умурзаков, Анна Родионова, Инна Кондратьева, Николай Тимофеев, Тамара Логинова, Ирина Радченко...
Об актёрах подробней

Описание:
Фильм по повести Р. Фрайермана "Дикая собака Динго или Повесть о первой любви" переносит зрителя в прекрасный мир юности, где водится Дикая собака Динго и цветет волшебный Цветок Саранка. В город, где живет с мамой Таня Сабанеева (Галина Польских), приезжает ее отец со своей новой женой и приемным сыном Колей. Об удивительно светлой, чистой, но и такой пронзительно горькой первой любви Коли и Тани рассказывает этот фильм.

Источник: DVD5 R5
Качество видео: DVDRip-AVC
Формат видео: MKV

Видео: 716->802х556 (1,444:1), 25 fps, H264 ~ 1485 kbps avg, 0.149 bit/pixel
Аудио: 48 kHz, Dolby Digital AC3 2.0, 192 kbps

Раздача от:
Общее
Полное имя : Dikaya.sobaka.Dingo.1962.DVDRip-AVC_[New-team]_by_AVP_Studio.mkv
Формат : Matroska
Версия формата : Version 2
Размер файла : 1,09 Гбайт
Продолжительность : 1 ч. 32 м.
Общий поток : 1679 Кбит/сек
Дата кодирования : UTC 2019-01-21 13:01:45
Программа кодирования : mkvmerge v6.1.0 ('Old Devil') built on Mar 4 2013 09:10:42
Библиотека кодирования : libebml v1.3.0 + libmatroska v1.4.0

Видео
Идентификатор : 1
Формат : AVC
Формат/Информация : Advanced Video Codec
Профиль формата : High@L4.1
Настройки формата : CABAC / 10 Ref Frames
Параметр CABAC формата : Да
Параметр RefFrames формата : 10 кадров
Идентификатор кодека : V_MPEG4/ISO/AVC
Продолжительность : 1 ч. 32 м.
Битрейт : 1485 Кбит/сек
Ширина : 716 пикселей
Высота : 556 пикселей
Соотношение сторон : 1,444
Режим частоты кадров : Постоянный
Частота кадров : 25,000 кадров/сек
Цветовое пространство : YUV
Субдискретизация насыщенности : 4:2:0
Битовая глубина : 8 бит
Тип развёртки : Прогрессивная
Бит/(Пиксели*Кадры) : 0.149
Размер потока : 965 Мбайт (87%)
Библиотека кодирования : x264 core 157 r2932 303c484
Настройки программы : cabac=1 / ref=10 / deblock=1:-2:-1 / analyse=0x3:0x113 / me=umh / subme=10 / psy=1 / psy_rd=1.00:0.00 / mixed_ref=1 / me_range=32 / chroma_me=1 / trellis=2 / 8x8dct=1 / cqm=0 / deadzone=21,11 / fast_pskip=1 / chroma_qp_offset=-2 / threads=6 / lookahead_threads=1 / sliced_threads=0 / nr=0 / decimate=0 / interlaced=0 / bluray_compat=0 / constrained_intra=0 / bframes=8 / b_pyramid=2 / b_adapt=2 / b_bias=0 / direct=3 / weightb=1 / open_gop=0 / weightp=2 / keyint=250 / keyint_min=25 / scenecut=40 / intra_refresh=0 / rc=2pass / mbtree=0 / bitrate=1485 / ratetol=1.0 / qcomp=0.60 / qpmin=0 / qpmax=69 / qpstep=4 / cplxblur=20.0 / qblur=0.5 / ip_ratio=1.40 / pb_ratio=1.30 / aq=1:1.00
Default : Да
Forced : Нет

Аудио
Идентификатор : 2
Формат : AC-3
Формат/Информация : Audio Coding 3
Коммерческое название : Dolby Digital
Идентификатор кодека : A_AC3
Продолжительность : 1 ч. 32 м.
Вид битрейта : Постоянный
Битрейт : 192 Кбит/сек
Каналы : 2 канала
Channel layout : L R
Частота : 48,0 КГц
Частота кадров : 31,250 кадров/сек (1536 SPF)
Битовая глубина : 16 бит
Метод сжатия : С потерями
Размер потока : 127 Мбайт (11%)
Default : Да
Forced : Нет



Скачать Дикая собака Динго через торрент http://picplus.ru/img/1901/22/0fa8145e.png Скачать, смотреть онлайн Дикая собака Динго бесплантно в хорошем качестве Описание:Фильм по повести Р. Фрайермана "Дикая собака Динго или Повесть о первой любви" переносит зрителя в прекрасный мир юности, где ... 10 10 1
Info! Золотая раздача, скачанное не засчитывается.
Торрент: Зарегистрирован [2019-01-22 10:33] · скачан: 15 раз
Статус: √ проверено
Размер: 1.09 GB
Как cкачать? Как скачать Дикая собака Динго через торрент | UTorrent

% Раздел Тема Автор DL S | L
Кино СССР [ 1.09 GB ] Дикая собака Динго | | DVDRip от AVP Studio AVP Studio Скачать
1 | 0

28-11-2019 20:33  

Отключить вcю реклaмy на сайте

    Дорогой пользователь! Огромная просьба, поблагодарите релизера, оцените раздачу и оставьте свои комментарий, если Вы скачали Дикая собака Динго через торрент бесплатно!!
    Комментировать посты могут только пользователи прошедшие не сложную регистрацию
    Показать сообщения:    


    Дикая собака Динго через торрент
    Скачать бесплатно Дикая собака Динго
    Дикая собака Динго скачать торрент
    Дикая собака Динго смотреть онлайн
    Cкачать фильм Дикая собака Динго бесплатно
    Дикая собака Динго скачать торрент в хорошем качестве
    Дикая собака Динго смотреть онлайн бесплатно в хорошем качестве
    Вы не можете начинать темы
    Вы не можете отвечать на сообщения
    Вы не можете редактировать свои сообщения
    Вы не можете удалять свои сообщения
    Вы не можете голосовать в опросах
    Вы не можете прикреплять файлы к сообщениям
    Вы можете скачивать файлы