Достать ножи: Стеклянная луковица

MVO

Добыча

Дубляж

Уэнсдэй

1 сезон

Тор

Дубляж

13 клиническая

1 сезон

Жестокая ночь

MVO

Одни из нас

1 сезон

Deluxe

pack

Рекомендуем

30

Пиратка

ВАЖНО

ВАЖНО

Ghostwire

Пиратка

jed

RePack

nioh2

RePack

RDR2

RePack

NEED FOR SPEED™ PAYBACK

RePack

скачать торрент

Кинопоиск HD

Острые козырьки 6 сезон

6 сезон

FAR CRY 6

RePack

скачать торрент

Лицензия

скачать торрент

MVO

1

1 сезон

скачать торрент

1 сезон

скачать торрент

Лицензия

  

Чёрный клановец / BlacKkKlansman (Спайк Ли) [2018, драма, криминал, биография, UHD BDRemux 2160p] Дубляж [Лицензия] [Dolby Vision TV]

Чёрный клановец через торрент piratbit.org

Размер: 72.1 GB | Добавлен: 4 года назад | Торрент скачан:9 раз
Смотреть онлайн | Скачать | Поддержите нас   

25-01-2019 02:14 Чёрный клановец Скачать торрент  

Чёрный клановец / BlacKkKlansman«В сердце ненависти»
Год выпуска: 2018
Страна: США
Жанр: драма, криминал, биография
Продолжительность: 02:14:49
Перевод: Дублированный | Лицензия
Режиссер: Спайк Ли
В ролях:

Джон Дэвид Вашингтон (Ron Stallworth), Адам Драйвер (Flip Zimmerman), Лора Хэрриер (Patrice Dumas), Тофер Грейс (David Duke), Яспер Пяякконен (Felix Kendrickson), Райан Эгголд (Walter Breachway), Роберт Джон Бёрк (Chief Bridges), Николас Туртурро (Walker), Кори Хоукинс (Kwame Ture), Алек Болдуин (Dr. Kennebrew Beauregard), Исайя Уитлок мл. (Mr. Turrentine), Брайан Тарантина (Officer Clay Mulaney)
Описание:
Внедриться в Ку-Клукс-Клан - задача не из легких, особенно если ты чернокожий. Но целеустремленного полицейского из Колорадо такие мелочи не смущают. Вместе с напарником-евреем он вступает в неравный бой с опаснейшими противниками.
Рейтинг:

MPAA: R - Лицам до 17 лет обязательно присутствие взрослого
Качество: UHD BDRemux 2160p | Dolby Vision TV
Формат: MP4
Видео: HEVC, 68600 Кбит/с, 3840x2160, 23.976 Кадр/с
Аудио: Dolby Digital Audio / Русский / 640 kbps / 5.1 / 48 kHz
Данный вид релизов (контейнер MP4) предназначен для встроенного в ТВ (соответственно, с поддержкой DV) плеер.
Т.Е. Можно использовать как USB flash/HDD, так и DLNA / Plex - подобные сервисы/программы. дополнительный-внешний плеер не обязателен.

Внимание!
На моделях LG 2016 возможны сюрпризы "через раз", 2017-2018 должно идти без сюрпризов )
Общее
Полное имя : BlacKkKlansman.2018.UHD.BDRemux.2160p.DV.IVA.RUS.ExKinoRay.mp4
Формат : MPEG-4
Профиль формата : Base Media / Version 2
Идентификатор кодека : mp42 (mp42/iso6/isom/msdh/dby1)
Размер файла : 72,1 Гбайт
Продолжительность : 2 ч. 14 м.
Общий поток : 76,6 Мбит/сек
Дата кодирования : UTC 2019-01-24 18:13:07
Дата пометки : UTC 2019-01-24 18:13:07

Видео #1
Идентификатор : 1
Формат : HEVC
Формат/Информация : High Efficiency Video Coding
Коммерческое название : HDR10
Профиль формата : Main 10@L5.1@High
Идентификатор кодека : hev1
Идентификатор кодека/Информация : High Efficiency Video Coding
Продолжительность : 2 ч. 14 м.
Битрейт : 68,6 Мбит/сек
Ширина : 3840 пикселей
Высота : 2160 пикселей
Соотношение сторон : 16:9
Режим частоты кадров : Постоянный
Частота кадров : 23,976 (24000/1001) кадра/сек
Цветовое пространство : YUV
Субдискретизация насыщенности : 4:2:0 (Type 2)
Битовая глубина : 10 бит
Бит/(Пиксели*Кадры) : 0.345
Размер потока : 64,6 Гбайт (90%)
Default : Нет
Дата кодирования : UTC 2019-01-24 18:13:07
Дата пометки : UTC 2019-01-24 18:13:07
Цветовой диапазон : Limited
Основные цвета : BT.2020
Характеристики трансфера : PQ
Коэффициенты матрицы : BT.2020 non-constant
MasteringDisplay_ColorPrimaries : Display P3
MasteringDisplay_Luminance : min: 0.0050 cd/m2, max: 1000 cd/m2
MaxCLL : 552 cd/m2
MaxFALL : 132 cd/m2
Codec configuration box : hvcC

Видео #2
Идентификатор : 2
Формат : HEVC
Формат/Информация : High Efficiency Video Coding
Коммерческое название : HDR10
Профиль формата : Main 10@L5.1@High
Dolby Vision : 1.0, dvhe.07.06, EL+RPU
Идентификатор кодека : dvhe
Идентификатор кодека/Информация : High Efficiency Video Coding with Dolby Vision
Продолжительность : 2 ч. 14 м.
Битрейт : 7339 Кбит/сек
Ширина : 1920 пикселей
Высота : 1080 пикселей
Соотношение сторон : 16:9
Режим частоты кадров : Постоянный
Частота кадров : 23,976 (24000/1001) кадра/сек
Цветовое пространство : YUV
Субдискретизация насыщенности : 4:2:0 (Type 2)
Битовая глубина : 10 бит
Бит/(Пиксели*Кадры) : 0.148
Размер потока : 6,91 Гбайт (10%)
Default : Нет
Дата кодирования : UTC 2019-01-24 18:13:07
Дата пометки : UTC 2019-01-24 18:13:07
Цветовой диапазон : Limited
Основные цвета : BT.2020
Характеристики трансфера : PQ
Коэффициенты матрицы : BT.2020 non-constant
MasteringDisplay_ColorPrimaries : Display P3
MasteringDisplay_Luminance : min: 0.0050 cd/m2, max: 1000 cd/m2
Codec configuration box : hvcC+dvcC

Аудио
Идентификатор : 3
Формат : AC-3
Формат/Информация : Audio Coding 3
Коммерческое название : Dolby Digital
Идентификатор кодека : ac-3
Продолжительность : 2 ч. 14 м.
Вид битрейта : Постоянный
Битрейт : 640 Кбит/сек
Каналы : 6 каналов
Channel layout : L R C LFE Ls Rs
Частота : 48,0 КГц
Частота кадров : 31,250 кадров/сек (1536 SPF)
Битовая глубина : 16 бит
Метод сжатия : С потерями
Размер потока : 617 Мбайт (1%)
Язык : Russian
ServiceKind/String : Complete Main
Default : Нет
Дата кодирования : UTC 2019-01-24 18:13:07
Дата пометки : UTC 2019-01-24 18:13:07



Скачать Чёрный клановец через торрент https://d.radikal.ru/d37/1812/7d/8442ae29e6b4.png Скачать, смотреть онлайн Чёрный клановец бесплантно в хорошем качестве Описание: Внедриться в Ку-Клукс-Клан - задача не из легких, особенно если ты чернокожий. Но целеустремленного полицейского из Колорадо ... 5 10 1
Info! Золотая раздача, скачанное не засчитывается.
Торрент: Зарегистрирован [2019-01-25 02:14] · скачан: 9 раз
Статус: √ проверено
Размер: 72.1 GB
Как cкачать? Как скачать Чёрный клановец через торрент | UTorrent

% Раздел Тема Автор DL S | L
Ultra HD (UHD: 2K, 4K, 8K) [ 69.7 GB ] Чёрный клановец / BlacKkKlansman | Лицензия | 2160p sheker187 Скачать
1 | 0
Фильмы 2018 [DVDrip, WEB-DLRip, HDrip] (DUB, MVO) [ 2.19 GB ] Чёрный клановец / BlacKkKlansman | Лицензия | BDRip Twi7ter Скачать
1 | 0
Ultra HD (UHD: 2K, 4K, 8K) [ 69.57 GB ] Чёрный клановец / BlacKkKlansman | Лицензия | 2160p sheker187 Скачать
1 | 0
Ultra HD (UHD: 2K, 4K, 8K) [ 86.83 GB ] Чёрный клановец / BlacKkKlansman | Лицензия | 2160p sheker187 Скачать
1 | 0
Фильмы 2018 [DVDrip, WEB-DLRip, HDrip] (DUB, MVO) [ 2.11 GB ] Чёрный клановец / BlacKkKlansman | Лицензия | BDRip-AVC sheker187 Скачать
1 | 0
Фильмы (Blu-ray, BD-Remux, HDDVD) [ 35.01 GB ] Чёрный клановец / BlacKkKlansman | Лицензия | 1080p sheker187 Скачать
1 | 0
Фильмы [HD 720p, 1080p] (Хороший звук DUB, MVO) [ 12.67 GB ] Чёрный клановец / BlacKkKlansman | Лицензия | 1080p sheker187 Скачать
1 | 0

28-11-2019 20:33  


Отключить вcю реклaмy на сайте, в т.ч. и в плеере онлайн просмотра!

    Дорогой пользователь! Огромная просьба, поблагодарите релизера, оцените раздачу и оставьте свои комментарий, если Вы скачали Чёрный клановец через торрент бесплатно!!
    Комментировать посты могут только пользователи прошедшие не сложную регистрацию
    Показать сообщения:    


    Чёрный клановец через торрент
    Скачать бесплатно Чёрный клановец
    Чёрный клановец скачать торрент
    Чёрный клановец смотреть онлайн
    Cкачать фильм Чёрный клановец бесплатно
    Чёрный клановец скачать торрент в хорошем качестве
    Чёрный клановец смотреть онлайн бесплатно в хорошем качестве
    Вы не можете начинать темы
    Вы не можете отвечать на сообщения
    Вы не можете редактировать свои сообщения
    Вы не можете удалять свои сообщения
    Вы не можете голосовать в опросах
    Вы не можете прикреплять файлы к сообщениям
    Вы можете скачивать файлы
    Чёрный клановец / BlacKkKlansman [2018, драма, криминал, биография, UHD BDRemux 2160p] Дубляж [Лицензия] [Dolby Vision TV] смотреть онлайн, скачать торрент picoco.icu